<?xml version="1.0" standalone="no"?>
<!DOCTYPE svg PUBLIC "-//W3C//DTD SVG 1.1//EN" "http://www.w3.org/Graphics/SVG/1.1/DTD/svg11.dtd" >
<svg>
<metadata>
Created by FontForge 20120731 at Sat Jun 29 16:50:13 2019
 By www
 ITC Franklin Gothic is a trademark of The International Typeface Corporation which may be registered in certain jurisdictions. Portions copyright Microsoft Corporation.  All rights reserved.
</metadata>
<defs>
<font id="FranklinGothic-BookItalic" horiz-adv-x="1451" >
  <font-face 
    font-family="Franklin Gothic Book"
    font-weight="400"
    font-style="italic"
    font-stretch="normal"
    units-per-em="2048"
    panose-1="2 11 5 3 2 1 2 9 2 4"
    ascent="1638"
    descent="-410"
    x-height="1013"
    cap-height="1365"
    bbox="-460 -677 2221 1967"
    underline-thickness="102"
    underline-position="-103"
    slope="-9.5"
    unicode-range="U+0020-FB02"
  />
<missing-glyph horiz-adv-x="2048" 
d="M256 0v1536h1536v-1536h-1536zM384 128h1280v1280h-1280v-1280z" />
    <glyph glyph-name=".notdef" horiz-adv-x="2048" 
d="M256 0v1536h1536v-1536h-1536zM384 128h1280v1280h-1280v-1280z" />
    <glyph glyph-name=".null" horiz-adv-x="0" 
 />
    <glyph glyph-name="nonmarkingreturn" horiz-adv-x="512" 
 />
    <glyph glyph-name="space" unicode=" " horiz-adv-x="512" 
 />
    <glyph glyph-name="exclam" unicode="!" horiz-adv-x="547" 
d="M296 351h-85l90 1014h226zM292 0h-206l33 195h206z" />
    <glyph glyph-name="quotedbl" unicode="&#x22;" horiz-adv-x="633" 
d="M285 844h-93l57 521h153zM554 844h-93l57 521h153z" />
    <glyph glyph-name="numbersign" unicode="#" horiz-adv-x="1201" 
d="M1181 965l-27 -123h-210l-63 -286h210l-27 -123h-211l-95 -433h-131l96 433h-290l-96 -433h-130l96 433h-218l27 123h219l63 286h-219l27 123h219l88 400h130l-88 -400h288l88 400h131l-89 -400h212zM811 842h-287l-63 -286h288z" />
    <glyph glyph-name="dollar" unicode="$" horiz-adv-x="1201" 
d="M1123 1098l-137 -68q-68 152 -223 190l-75 -450q377 -87 377 -359q0 -165 -130.5 -283t-373.5 -119l-34 -199h-121l36 215q-261 55 -368 307l135 70q84 -204 256 -242l80 484q-336 81 -336 332q0 150 117.5 263.5t338.5 115.5l30 180h121l-32 -189q237 -36 339 -248z
M571 798l73 435q-120 -1 -201.5 -62t-81.5 -166q0 -161 210 -207zM662 616l-79 -473h31q122 0 207.5 71t85.5 178q0 167 -245 224z" />
    <glyph glyph-name="percent" unicode="%" horiz-adv-x="1583" 
d="M438 679q-127 0 -204.5 93t-77.5 221q0 156 96 278t248 122q128 0 207.5 -93.5t79.5 -222.5q0 -152 -99.5 -275t-249.5 -123zM451 780q96 0 153.5 94t57.5 238q0 77 -45.5 129t-120.5 52q-109 0 -161.5 -104.5t-52.5 -212.5q0 -82 45.5 -139t123.5 -57zM352 0h-130
l1066 1365h128zM1151 -23q-141 0 -219.5 95t-78.5 228q0 145 100.5 269.5t242.5 124.5q128 0 209 -92t81 -227q0 -156 -97 -277t-238 -121zM1145 76q95 0 154.5 87t59.5 244q0 100 -52 143.5t-114 43.5q-96 0 -154 -93.5t-58 -219.5q0 -102 47 -153.5t117 -51.5z" />
    <glyph glyph-name="ampersand" unicode="&#x26;" horiz-adv-x="1366" 
d="M1203 -18q-78 -19 -127 -19q-41 0 -95.5 18.5t-124.5 109.5q-127 -85 -201.5 -108t-153.5 -23q-186 0 -311.5 119t-125.5 283q0 99 50.5 192.5t136 146t250.5 110.5q-99 183 -99 305q0 116 90 202.5t240 86.5q141 0 229.5 -83t88.5 -206q0 -107 -67.5 -193t-295.5 -180
l216 -443q180 184 285 443l121 -47q-123 -300 -342 -513q53 -91 130 -91q36 0 123 16zM645 848q149 62 207.5 125t58.5 145q0 74 -52 121t-130 47q-81 0 -131 -52.5t-50 -133.5q0 -76 97 -252zM791 203l-241 503q-315 -114 -315 -337q0 -114 79 -198t206 -84q135 0 271 116z
" />
    <glyph glyph-name="quotesingle" unicode="'" horiz-adv-x="364" 
d="M285 844h-93l57 521h153z" />
    <glyph glyph-name="parenleft" unicode="(" horiz-adv-x="601" 
d="M367 -341h-95q-186 283 -186 662q0 568 471 1044h115q-215 -236 -331.5 -526t-116.5 -578q0 -325 143 -602z" />
    <glyph glyph-name="parenright" unicode=")" horiz-adv-x="601" 
d="M242 1365h95q186 -282 186 -662q0 -569 -471 -1044h-115q216 236 332.5 525.5t116.5 576.5q0 325 -144 604z" />
    <glyph glyph-name="asterisk" unicode="*" horiz-adv-x="1201" 
d="M691 1365h118l-66 -348l350 114l17 -112l-351 -101l165 -279l-108 -69l-151 286l-247 -286l-84 69l257 278l-317 102l55 112l311 -115z" />
    <glyph glyph-name="plus" unicode="+" horiz-adv-x="1201" 
d="M152 753h403v421h150v-421h403v-138h-403v-421h-150v421h-403v138z" />
    <glyph glyph-name="comma" unicode="," horiz-adv-x="512" 
d="M55 -304h-79l187 304h-104l38 229h226l-39 -229z" />
    <glyph glyph-name="hyphen" unicode="-" horiz-adv-x="512" 
d="M475 452h-455l19 116h455z" />
    <glyph glyph-name="period" unicode="." horiz-adv-x="512" 
d="M284 0h-225l38 229h226z" />
    <glyph glyph-name="slash" unicode="/" horiz-adv-x="960" 
d="M-117 -341h-131l1151 1706h133z" />
    <glyph glyph-name="zero" unicode="0" horiz-adv-x="1201" 
d="M556 -44q-202 0 -327 162t-125 438q0 321 166.5 587t428.5 266q207 0 333 -164.5t126 -427.5q0 -333 -170 -597t-432 -264zM566 82q199 0 309 243.5t110 522.5q0 241 -84 337.5t-208 96.5q-202 0 -312 -251.5t-110 -517.5q0 -237 85.5 -334t209.5 -97z" />
    <glyph glyph-name="one" unicode="1" horiz-adv-x="1201" 
d="M1084 0h-978l22 132h398l177 1049q-55 -77 -175 -122t-229 -46l22 136q334 46 463 249h116l-212 -1266h418z" />
    <glyph glyph-name="two" unicode="2" horiz-adv-x="1201" 
d="M1004 0h-971l28 169q338 206 557.5 368.5t286 260t66.5 193.5q0 121 -86.5 200t-214.5 79q-96 0 -189 -58t-168 -257l-136 51q137 402 497 402q196 0 331.5 -123.5t135.5 -300.5q0 -213 -204 -386t-698 -452h789z" />
    <glyph glyph-name="three" unicode="3" horiz-adv-x="1201" 
d="M51 307l136 53q106 -260 369 -260q139 0 235.5 82.5t96.5 206.5q0 97 -58 162.5t-136 80t-272 14.5l22 135q81 -2 132 -2q229 0 303 82t74 174q0 104 -80 171t-193 67q-212 0 -321 -218l-125 70q152 273 450 273q196 0 315 -107.5t119 -255.5q0 -115 -76.5 -205
t-237.5 -123q120 -29 185.5 -124t65.5 -203q0 -167 -138 -291t-360 -124q-172 0 -312 90.5t-194 251.5z" />
    <glyph glyph-name="four" unicode="4" horiz-adv-x="1201" 
d="M816 0h-161l55 330h-654l23 137l773 937h199l-157 -938h224l-23 -136h-224zM733 466l128 768l-635 -768h507z" />
    <glyph glyph-name="five" unicode="5" horiz-adv-x="1201" 
d="M76 286l132 60q122 -237 353 -237q165 0 263.5 110.5t98.5 256.5q0 135 -87.5 227t-222.5 92q-182 0 -297 -188l-144 44l162 714h802l-47 -144h-649l-100 -450q118 153 302 153q180 0 312 -125.5t132 -319.5q0 -199 -142.5 -351.5t-382.5 -152.5q-166 0 -296 84t-189 227
z" />
    <glyph glyph-name="six" unicode="6" horiz-adv-x="1201" 
d="M1042 1051q-91 215 -289 215q-345 0 -465 -611q134 248 395 248q182 0 309 -127.5t127 -315.5q0 -192 -137 -341.5t-358 -149.5q-222 0 -362.5 154t-140.5 425q0 305 169 578.5t458 273.5q336 0 444 -308zM618 105q140 0 239.5 103t99.5 260q0 117 -86 207.5t-215 90.5
q-134 0 -241 -99.5t-107 -248.5q0 -134 91 -223.5t219 -89.5z" />
    <glyph glyph-name="seven" unicode="7" horiz-adv-x="1201" 
d="M515 -16h-182q63 719 667 1233h-773l46 148h933l-19 -111q-384 -371 -516.5 -665t-155.5 -605z" />
    <glyph glyph-name="eight" unicode="8" horiz-adv-x="1201" 
d="M822 730q272 -119 272 -344q0 -173 -140.5 -293t-372.5 -120q-217 0 -361.5 99t-144.5 269q0 269 355 368q-212 108 -212 306q0 159 124.5 269t341.5 110q187 0 313.5 -89t126.5 -237q0 -244 -302 -338zM657 789q157 52 234 110t77 150q0 100 -81 160.5t-210 60.5
t-213.5 -61.5t-84.5 -167.5q0 -159 278 -252zM599 645q-363 -90 -363 -296q0 -119 96 -183t247 -64q167 0 257.5 75.5t90.5 179.5q0 69 -49 135t-279 153z" />
    <glyph glyph-name="nine" unicode="9" horiz-adv-x="1201" 
d="M206 298q95 -202 300 -202q162 0 282 139t176 481q-135 -242 -390 -242q-176 0 -300 127.5t-124 314.5q0 201 143.5 341.5t353.5 140.5q215 0 349.5 -149t134.5 -419q0 -338 -172 -599.5t-470 -261.5q-145 0 -257 72.5t-161 191.5zM605 609q133 0 240.5 98.5t107.5 259.5
q0 118 -85.5 209.5t-218.5 91.5q-139 0 -240 -100t-101 -244q0 -137 89 -226t208 -89z" />
    <glyph glyph-name="colon" unicode=":" horiz-adv-x="512" 
d="M412 765h-225l38 229h226zM284 0h-225l38 229h226z" />
    <glyph glyph-name="semicolon" unicode=";" horiz-adv-x="512" 
d="M412 765h-225l38 229h226zM55 -304h-79l186 304h-103l38 229h226l-39 -229z" />
    <glyph glyph-name="semicolon" unicode="&#x37e;" horiz-adv-x="512" 
d="M412 765h-225l38 229h226zM55 -304h-79l186 304h-103l38 229h226l-39 -229z" />
    <glyph glyph-name="less" unicode="&#x3c;" horiz-adv-x="1201" 
d="M1075 1159v-152l-723 -331l723 -331v-151l-887 416v133z" />
    <glyph glyph-name="equal" unicode="=" horiz-adv-x="1201" 
d="M155 931h956v-138h-956v138zM155 606h956v-138h-956v138z" />
    <glyph glyph-name="greater" unicode="&#x3e;" horiz-adv-x="1201" 
d="M188 194v152l724 331l-723 331l-1 151l887 -417v-132z" />
    <glyph glyph-name="question" unicode="?" horiz-adv-x="1020" 
d="M495 349h-142q15 152 39.5 217t64.5 98t155 87q102 48 145 79.5t72.5 84.5t29.5 118q0 110 -78.5 173t-183.5 63q-224 0 -325 -274l-140 58q137 351 469 351q183 0 304 -105t121 -267q0 -77 -33.5 -155t-99.5 -133.5t-239 -124.5q-90 -36 -119 -81.5t-40 -188.5zM471 0
h-206l33 197h206z" />
    <glyph glyph-name="at" unicode="@" horiz-adv-x="1529" 
d="M1143 1040l-76 -465q-11 -64 -11 -102q0 -63 68 -63q82 0 153.5 108.5t71.5 256.5q0 227 -164 364.5t-388 137.5q-166 0 -294 -81t-200.5 -217.5t-72.5 -297.5q0 -243 159 -416t452 -173q217 0 424 112l49 -110q-231 -121 -478 -121q-341 0 -536.5 204.5t-195.5 497.5
q0 301 200.5 509.5t507.5 208.5q263 0 460 -159.5t197 -443.5q0 -202 -104 -352t-240 -150t-178 127q-97 -131 -222 -131q-127 0 -215 99.5t-88 261.5q0 174 103 293t252 119q144 0 224 -123l17 106h125zM741 410q90 0 155.5 94t65.5 208q0 100 -52 159.5t-127 59.5
q-90 0 -152 -82.5t-62 -203.5q0 -104 49.5 -169.5t122.5 -65.5z" />
    <glyph glyph-name="A" unicode="A" horiz-adv-x="1155" 
d="M792 400h-498l-196 -400h-155l669 1365h189l238 -1365h-176zM772 537l-105 627l-308 -627h413z" />
    <glyph glyph-name="B" unicode="B" horiz-adv-x="1251" 
d="M86 0l228 1365h428q163 0 245.5 -23.5t145.5 -104.5t63 -194q0 -247 -267 -329q99 -31 158 -114.5t59 -197.5q0 -104 -43 -189.5t-109.5 -131.5t-132 -63.5t-241.5 -17.5h-534zM383 777h258q153 0 226 22.5t119 85.5t46 152q0 73 -38 122.5t-93 62.5t-181 13l-261 -2z
M275 135h296q176 0 246.5 21t117.5 89.5t47 173.5q0 88 -41.5 142t-99.5 70t-204 16h-276z" />
    <glyph glyph-name="C" unicode="C" horiz-adv-x="1179" 
d="M1207 945l-149 -37q-23 199 -112 276.5t-207 77.5q-137 0 -235.5 -94t-158.5 -280t-60 -348q0 -204 89.5 -314.5t236.5 -110.5q233 0 368 321l139 -52q-153 -407 -511 -407q-239 0 -368.5 168t-129.5 428q0 311 174.5 568.5t450.5 257.5q178 0 311 -108t162 -346z" />
    <glyph glyph-name="D" unicode="D" horiz-adv-x="1328" 
d="M86 0l228 1365h379q202 0 315.5 -65.5t188 -201.5t74.5 -332q0 -262 -109 -443.5t-236.5 -252t-335.5 -70.5h-504zM276 139l274 -2q145 0 230 31t155.5 103t119.5 208.5t49 299.5q0 147 -49.5 254.5t-140.5 155.5t-242 48l-213 -2z" />
    <glyph glyph-name="E" unicode="E" horiz-adv-x="1144" 
d="M86 0l228 1365h851l-23 -136h-684l-75 -448h586l-23 -135h-585l-84 -501h738l-24 -145h-905z" />
    <glyph glyph-name="F" unicode="F" horiz-adv-x="1039" 
d="M360 642l-107 -642h-167l228 1365h835l-23 -138h-668l-75 -450h576l-23 -135h-576z" />
    <glyph glyph-name="G" unicode="G" horiz-adv-x="1333" 
d="M702 683h518l-117 -699h-92l-21 166q-118 -184 -364 -184q-226 0 -370 171t-144 444q0 319 175 568.5t463 249.5q371 0 503 -386l-148 -52q-93 306 -356 306q-215 0 -339 -212.5t-124 -490.5q0 -223 102 -343.5t256 -120.5q149 0 254 111t138 338h-356z" />
    <glyph glyph-name="H" unicode="H" horiz-adv-x="1343" 
d="M1030 646h-669l-108 -646h-167l228 1365h167l-96 -574h669l96 574h167l-229 -1365h-166z" />
    <glyph glyph-name="I" unicode="I" horiz-adv-x="508" 
d="M481 1365l-228 -1365h-167l228 1365h167z" />
    <glyph glyph-name="J" unicode="J" horiz-adv-x="755" 
d="M741 1365l-141 -843q-36 -218 -79 -314t-146.5 -162.5t-254.5 -66.5q-100 0 -205 21l24 140q69 -16 152 -16q107 0 175.5 38.5t98 102t55.5 215.5l148 885h173z" />
    <glyph glyph-name="K" unicode="K" horiz-adv-x="1275" 
d="M1291 1365l-461 -476l324 -889h-175l-276 770l-388 -398l-62 -372h-167l228 1365h167l-130 -778l750 778h190z" />
    <glyph glyph-name="L" unicode="L" horiz-adv-x="1042" 
d="M930 0h-844l228 1365h167l-204 -1220h677z" />
    <glyph glyph-name="M" unicode="M" horiz-adv-x="1670" 
d="M1414 0h-166l210 1253l-656 -1253h-126l-244 1233l-207 -1233h-139l228 1365h253l223 -1118l584 1118h269z" />
    <glyph glyph-name="N" unicode="N" horiz-adv-x="1341" 
d="M1085 0h-133l-535 1167l-196 -1167h-135l228 1365h187l497 -1088l182 1088h134z" />
    <glyph glyph-name="O" unicode="O" horiz-adv-x="1315" 
d="M629 -27q-235 0 -376 168.5t-141 443.5q0 310 174 559t462 249q228 0 372 -158t144 -434q0 -327 -171 -577.5t-464 -250.5zM629 110q156 0 265.5 118.5t152.5 300t43 307.5q0 197 -98 308t-250 111q-218 0 -336.5 -218.5t-118.5 -486.5q0 -212 96 -326t246 -114z" />
    <glyph glyph-name="P" unicode="P" horiz-adv-x="1140" 
d="M345 552l-92 -552h-167l228 1365h375q166 0 259.5 -29.5t159.5 -129.5t66 -218q0 -157 -114.5 -296.5t-439.5 -139.5h-275zM368 688h187q174 0 252 18t135.5 94.5t57.5 183.5q0 83 -35 142.5t-90 82t-190 22.5l-227 -2z" />
    <glyph glyph-name="Q" unicode="Q" horiz-adv-x="1309" 
d="M705 -20q-5 -37 -5 -55q0 -125 156 -125q27 0 177 15l-21 -126q-118 -19 -187 -19q-119 0 -186.5 57.5t-67.5 169.5q0 28 6 77q-238 30 -352.5 197.5t-114.5 397.5q0 323 175 573.5t460 250.5q229 0 372 -162t143 -432q0 -297 -154 -545.5t-401 -273.5zM627 108
q209 0 330.5 203.5t121.5 539.5q0 168 -87 286t-248 118q-225 0 -338.5 -225.5t-113.5 -501.5q0 -195 93 -307.5t242 -112.5z" />
    <glyph glyph-name="R" unicode="R" horiz-adv-x="1297" 
d="M755 598h-402l-100 -598h-167l228 1365h427q193 0 287.5 -40.5t150.5 -126.5t56 -196q0 -139 -87.5 -245t-229.5 -129l192 -628h-177zM375 735h313q377 0 377 271q0 226 -294 226h-312z" />
    <glyph glyph-name="S" unicode="S" horiz-adv-x="1171" 
d="M1114 1080l-144 -55q-38 113 -132 180.5t-216 67.5q-149 0 -222.5 -71t-73.5 -168q0 -64 32.5 -109.5t85 -68t192.5 -57.5q184 -47 261 -84.5t132 -119.5t55 -196q0 -193 -141.5 -310.5t-376.5 -117.5q-441 0 -558 380l149 54q93 -296 409 -296q170 0 259.5 82t89.5 190
q0 66 -32.5 115.5t-83.5 73t-166 51.5q-176 42 -271.5 86t-150 123.5t-54.5 186.5q0 164 123.5 274.5t327.5 110.5q375 0 506 -322z" />
    <glyph glyph-name="T" unicode="T" horiz-adv-x="1000" 
d="M1099 1226h-395l-206 -1226h-166l205 1226h-396l23 139h959z" />
    <glyph glyph-name="U" unicode="U" horiz-adv-x="1259" 
d="M1254 1365l-139 -832q-38 -226 -93.5 -332t-166.5 -168.5t-268 -62.5q-189 0 -319.5 92t-130.5 293q0 60 32 255l127 755h167l-134 -791q-28 -165 -28 -211q0 -122 83 -188.5t207 -66.5q114 0 195 45t121 122t67 243l142 847h138z" />
    <glyph glyph-name="V" unicode="V" horiz-adv-x="1082" 
d="M554 0h-150l-270 1365h182l214 -1103l531 1103h158z" />
    <glyph glyph-name="W" unicode="W" horiz-adv-x="1663" 
d="M1215 0h-169l-131 1089l-438 -1089h-177l-134 1365h167l109 -1128l461 1128h128l140 -1128l456 1128h141z" />
    <glyph glyph-name="X" unicode="X" horiz-adv-x="1103" 
d="M1012 0h-193l-271 574l-455 -574h-173l560 700l-319 665h187l248 -528l419 528h174l-523 -651z" />
    <glyph glyph-name="Y" unicode="Y" horiz-adv-x="1049" 
d="M532 0h-172l95 572l-348 793h183l284 -646l472 646h168l-587 -793z" />
    <glyph glyph-name="Z" unicode="Z" horiz-adv-x="1076" 
d="M1121 1365l-19 -113l-905 -1107h770l-24 -145h-980l24 145l887 1082h-684l23 138h908z" />
    <glyph glyph-name="bracketleft" unicode="[" horiz-adv-x="601" 
d="M377 -341h-371l286 1706h371l-16 -92h-229l-254 -1522h229z" />
    <glyph glyph-name="backslash" unicode="\" horiz-adv-x="960" 
d="M812 -341l-581 1706h114l579 -1706h-112z" />
    <glyph glyph-name="bracketright" unicode="]" horiz-adv-x="601" 
d="M226 1365h371l-286 -1706h-371l16 92h229l254 1522h-229z" />
    <glyph glyph-name="asciicircum" unicode="^" horiz-adv-x="1024" 
d="M1006 745h-167l-297 503l-295 -503h-165l361 624h201z" />
    <glyph glyph-name="underscore" unicode="_" horiz-adv-x="1024" 
d="M31 -136h1024v-137h-1024v137z" />
    <glyph glyph-name="grave" unicode="`" horiz-adv-x="1024" 
d="M385 1356l62 120l368 -228l-43 -81z" />
    <glyph glyph-name="a" unicode="a" horiz-adv-x="1096" 
d="M877 0h-159q-1 31 -1 51q0 78 18 147q-153 -227 -380 -227q-142 0 -232.5 87t-90.5 218q0 147 130 251t485 104q32 0 153 -6q11 65 11 106q0 192 -233 192q-205 0 -293 -171l-148 63q120 230 431 230q172 0 288 -75.5t116 -213.5q0 -56 -77 -526q-21 -127 -21 -187
q0 -9 3 -43zM781 509q-72 6 -138 6q-438 0 -438 -246q0 -76 47.5 -122t132.5 -46q134 0 249.5 115t146.5 293z" />
    <glyph glyph-name="b" unicode="b" horiz-adv-x="1101" 
d="M140 0h-68l228 1365h157l-85 -513q130 187 312 187q161 0 253 -117.5t92 -312.5q0 -247 -134.5 -441.5t-347.5 -194.5q-212 0 -316 207zM543 94q147 0 234.5 164t87.5 379q0 132 -58.5 204.5t-151.5 72.5q-150 0 -253 -171.5t-103 -355.5q0 -138 71.5 -215.5t172.5 -77.5
z" />
    <glyph glyph-name="c" unicode="c" horiz-adv-x="971" 
d="M940 690l-153 -33q-15 122 -79.5 187t-151.5 65q-159 0 -237.5 -161t-78.5 -349q0 -145 65.5 -219.5t165.5 -74.5q181 0 280 244l128 -48q-50 -155 -164 -244.5t-260 -89.5q-187 0 -284.5 147.5t-97.5 326.5q0 227 134.5 416t352.5 189q152 0 259 -99.5t121 -256.5z" />
    <glyph glyph-name="d" unicode="d" horiz-adv-x="1101" 
d="M860 0h-143l39 200q-137 -227 -349 -227q-162 0 -249 121t-87 306q0 231 132.5 434.5t350.5 203.5q208 0 294 -190l87 517h153zM449 97q151 0 253.5 164t102.5 377q0 129 -73.5 203t-169.5 74q-152 0 -239.5 -169.5t-87.5 -368.5q0 -135 59 -207.5t155 -72.5z" />
    <glyph glyph-name="e" unicode="e" horiz-adv-x="1065" 
d="M938 237q-156 -266 -438 -266q-191 0 -311.5 125t-120.5 338q0 262 150 437t372 175q109 0 203.5 -47t147 -147t52.5 -243q0 -51 -9 -116h-747q-6 -48 -6 -79q0 -139 73 -225.5t198 -86.5q86 0 155.5 38.5t149.5 158.5zM257 608h576q2 32 2 48q0 123 -70 196.5t-182 73.5
q-127 0 -215.5 -94.5t-110.5 -223.5z" />
    <glyph glyph-name="f" unicode="f" horiz-adv-x="614" 
d="M674 1013l-20 -123h-246l-149 -890h-156l149 890h-188l21 123h188q31 203 131 293t283 90q41 0 93 -6l-21 -124q-45 5 -72 5q-126 0 -185.5 -66.5t-72.5 -191.5h245z" />
    <glyph glyph-name="g" unicode="g" horiz-adv-x="1031" 
d="M1058 1078q-57 3 -82 3q-139 0 -174 -129q133 -103 133 -250q0 -152 -110.5 -260.5t-289.5 -108.5q-100 0 -196 42q-130 -57 -130 -135q0 -41 39 -54t179 -15q212 -3 301 -18.5t146.5 -77t57.5 -153.5q0 -145 -116.5 -228t-361.5 -83q-504 0 -504 242q0 152 187 220
q-79 44 -79 130q0 143 209 225q-113 84 -113 235q0 152 113 255t292 103q69 0 162 -27q43 136 111 180t164 44q37 0 84 -9zM528 446q111 0 180 67t69 180q0 95 -63.5 153t-161.5 58q-106 0 -173.5 -68t-67.5 -173q0 -95 57.5 -156t159.5 -61zM234 29q-131 -39 -131 -140
q0 -84 108 -123t271 -39q300 0 300 164q0 47 -41.5 81.5t-233.5 36.5q-171 2 -273 20z" />
    <glyph glyph-name="h" unicode="h" horiz-adv-x="1115" 
d="M456 1365l-90 -540q137 217 338 217q123 0 206 -75t83 -205q0 -49 -15 -139l-105 -623h-154l104 623q12 70 12 124q0 82 -48 127t-121 45q-115 0 -221 -126t-148 -377l-69 -416h-156l228 1365h156z" />
    <glyph glyph-name="i" unicode="i" horiz-adv-x="470" 
d="M453 1180h-203l31 185h203zM230 0h-157l170 1014h157z" />
    <glyph glyph-name="j" unicode="j" horiz-adv-x="469" 
d="M451 1180h-203l31 185h203zM396 1014l-159 -949q-27 -161 -55 -236t-106 -127.5t-186 -52.5q-56 0 -138 12l20 121q70 -7 107 -7q71 0 111.5 31t53.5 73t38 186l159 949h155z" />
    <glyph glyph-name="k" unicode="k" horiz-adv-x="1003" 
d="M228 0h-156l228 1365h156l-144 -861l540 509h183l-389 -361l252 -652h-166l-213 547l-239 -237z" />
    <glyph glyph-name="l" unicode="l" horiz-adv-x="470" 
d="M456 1365l-228 -1365h-156l228 1365h156z" />
    <glyph glyph-name="m" unicode="m" horiz-adv-x="1673" 
d="M1431 0h-156l98 585q16 99 16 147q0 93 -50.5 136t-117.5 43q-98 0 -188.5 -111t-129.5 -346l-76 -454h-157l97 581q20 116 20 158q0 85 -46 130.5t-115 45.5q-52 0 -106.5 -33.5t-104 -112t-67.5 -148t-51 -257.5l-66 -364h-159l170 1013h147l-25 -167q138 192 306 192
q204 0 265 -219q141 221 330 221q124 0 204 -75t80 -203q0 -54 -14 -139z" />
    <glyph glyph-name="n" unicode="n" horiz-adv-x="1122" 
d="M880 0h-149l98 583q17 100 17 145q0 79 -49 134.5t-141 55.5q-113 0 -215.5 -110t-160.5 -445l-63 -363h-145l170 1013h135l-38 -226q131 255 356 255q133 0 216.5 -81.5t83.5 -213.5q0 -60 -17 -162z" />
    <glyph glyph-name="o" unicode="o" horiz-adv-x="1066" 
d="M483 -30q-189 0 -298 131.5t-109 336.5q0 232 143 416t367 184q185 0 295 -126.5t110 -344.5q0 -226 -141 -411.5t-367 -185.5zM490 96q161 0 248 159t87 365q0 156 -73.5 225.5t-174.5 69.5q-159 0 -246 -158t-87 -355q0 -151 67 -228.5t179 -77.5z" />
    <glyph glyph-name="p" unicode="p" horiz-adv-x="1097" 
d="M171 -341h-156l226 1350h145l-32 -206q141 229 340 229q140 0 235 -114t95 -318q0 -239 -133 -433t-337 -194q-193 0 -301 175zM530 100q166 0 245.5 166.5t79.5 360.5q0 136 -63 206.5t-153 70.5q-128 0 -235 -160.5t-107 -362.5q0 -127 63.5 -204t169.5 -77z" />
    <glyph glyph-name="q" unicode="q" horiz-adv-x="1092" 
d="M1019 1014l-227 -1355h-156l89 533q-128 -222 -319 -222q-137 0 -236.5 109t-99.5 312q0 257 143.5 450t338.5 193q203 0 307 -191l90 171h70zM448 97q141 0 244.5 180t103.5 360q0 125 -68.5 201t-168.5 76q-151 0 -237 -168.5t-86 -371.5q0 -133 61 -205t151 -72z" />
    <glyph glyph-name="r" unicode="r" horiz-adv-x="694" 
d="M228 0h-156l170 1014h155l-48 -265q81 155 169.5 224.5t209.5 69.5q15 0 34 -1l-26 -160l-38 1q-93 0 -151.5 -35t-106.5 -99t-89 -159t-85 -363z" />
    <glyph glyph-name="s" unicode="s" horiz-adv-x="945" 
d="M857 796l-130 -55q-67 170 -266 170q-91 0 -146 -46.5t-55 -110.5q0 -65 42.5 -95.5t166.5 -58.5l63 -15q106 -24 164 -52.5t98 -91t40 -142.5q0 -135 -106.5 -230t-290.5 -95q-132 0 -247.5 51t-198.5 225l145 49q72 -200 306 -200q112 0 173.5 50t61.5 125
q0 59 -36.5 93.5t-162.5 64.5l-53 13q-117 28 -179.5 57.5t-104.5 89.5t-42 137q0 126 97.5 215.5t266.5 89.5q305 0 394 -238z" />
    <glyph glyph-name="t" unicode="t" horiz-adv-x="628" 
d="M383 892l-92 -549q-16 -93 -16 -126q0 -112 128 -112q45 0 138 10l-16 -125q-1 0 -29 -3q-83 -9 -122 -9q-252 0 -252 223q0 58 26 210l80 481h-154l21 122h157l41 245l153 14l-43 -259h231l-21 -122h-230z" />
    <glyph glyph-name="u" unicode="u" horiz-adv-x="1111" 
d="M1044 1014l-170 -1014h-136l41 245q-135 -272 -369 -272q-91 0 -156.5 42.5t-94.5 100.5t-29 146q0 57 22 185l97 567h156l-103 -616q-18 -105 -18 -129q0 -79 46 -123.5t121 -44.5q126 0 233 137.5t149 386.5l65 389h146z" />
    <glyph glyph-name="v" unicode="v" horiz-adv-x="910" 
d="M447 0h-144l-207 1014h168l154 -794l398 794h141z" />
    <glyph glyph-name="w" unicode="w" horiz-adv-x="1380" 
d="M959 0h-116l-127 772l-323 -772h-127l-156 1014h154l113 -762l319 762h129l121 -762l334 762h133z" />
    <glyph glyph-name="x" unicode="x" horiz-adv-x="893" 
d="M812 0h-177l-211 418l-329 -418h-158l419 525l-254 488h179l184 -361l281 361h152l-371 -470z" />
    <glyph glyph-name="y" unicode="y" horiz-adv-x="870" 
d="M941 1014l-556 -1069q-103 -199 -193 -250t-190 -51q-42 0 -100 7l23 136q51 -10 86 -10q161 0 248 180l35 71l-212 986h160l164 -771l399 771h136z" />
    <glyph glyph-name="z" unicode="z" horiz-adv-x="859" 
d="M733 0h-770l18 107l668 779h-519l22 128h728l-18 -103l-675 -784h567z" />
    <glyph glyph-name="braceleft" unicode="{" horiz-adv-x="601" 
d="M247 511q95 -46 95 -161q0 -22 -8 -69l-56 -332q-8 -49 -8 -74q0 -57 33.5 -83t131.5 -27l-17 -106h-34q-148 0 -199.5 49.5t-51.5 141.5q0 44 9 101l55 328q7 43 7 63q0 98 -93 123l17 99q122 28 147 178l59 355q25 147 104.5 207.5t222.5 60.5h42l-18 -106
q-112 -3 -156.5 -40.5t-60.5 -136.5l-58 -346q-29 -175 -163 -225z" />
    <glyph glyph-name="bar" unicode="|" horiz-adv-x="1024" 
d="M467 1365h153v-1706h-153v1706z" />
    <glyph glyph-name="braceright" unicode="}" horiz-adv-x="601" 
d="M356 513q-95 46 -95 161q0 22 7 69l56 332q8 48 8 73q0 58 -33.5 84t-131.5 27l17 106h35q147 0 199 -49.5t52 -141.5q0 -44 -10 -101l-55 -328q-7 -42 -7 -63q0 -98 93 -123l-16 -99q-123 -29 -148 -178l-59 -355q-24 -146 -103.5 -207t-222.5 -61h-43l18 106
q112 3 156.5 40t60.5 137l58 346q30 176 164 225z" />
    <glyph glyph-name="asciitilde" unicode="~" horiz-adv-x="1201" 
d="M140 585q107 238 281 238q84 0 229 -70q134 -64 197 -64q112 0 173 116q13 25 25 25q24 0 80 -58q-114 -231 -282 -231q-81 0 -254 81q-112 52 -182 52q-102 0 -165 -126q-12 -24 -23 -24q-23 0 -79 61z" />
    <glyph glyph-name="Adieresis" unicode="&#xc4;" horiz-adv-x="1155" 
d="M792 400h-498l-196 -400h-155l669 1365h189l238 -1365h-176zM772 537l-105 627l-308 -627h413zM987 1625q0 -43 -31.5 -73t-74.5 -30t-74.5 30t-31.5 72q0 43 31.5 72.5t73.5 29.5q44 0 75.5 -29.5t31.5 -71.5zM665 1624q0 -42 -31.5 -72t-73.5 -30t-72.5 30t-30.5 71
q0 43 30.5 72.5t69.5 29.5q48 0 78 -30t30 -71z" />
    <glyph glyph-name="Aring" unicode="&#xc5;" horiz-adv-x="1155" 
d="M911 1635q0 -75 -52.5 -127.5t-125.5 -52.5q-75 0 -128.5 53.5t-53.5 127.5q0 73 53 126.5t133 53.5q69 0 121.5 -52t52.5 -129zM822 1633q0 38 -26 65t-60 27q-42 0 -69 -27t-27 -63q0 -38 27.5 -65t64.5 -27t63.5 26.5t26.5 63.5zM792 400h-498l-196 -400h-155
l669 1365h189l238 -1365h-176zM772 537l-105 627l-308 -627h413z" />
    <glyph glyph-name="Ccedilla" unicode="&#xc7;" horiz-adv-x="1179" 
d="M605 -23l-34 -84q24 2 40 2q59 0 111 -34.5t52 -99.5q0 -75 -63 -123.5t-171 -48.5q-106 0 -189 50l34 72q79 -40 150 -40q124 0 124 83q0 72 -129 72q-30 0 -74 -5l71 161q-203 29 -310.5 193t-107.5 398q0 311 174.5 568.5t450.5 257.5q178 0 311 -108t162 -346
l-149 -37q-23 199 -112 276.5t-207 77.5q-137 0 -235.5 -94t-158.5 -280t-60 -348q0 -204 89.5 -314.5t236.5 -110.5q233 0 368 321l139 -52q-148 -404 -513 -407z" />
    <glyph glyph-name="Eacute" unicode="&#xc9;" horiz-adv-x="1144" 
d="M86 0l228 1365h851l-23 -136h-684l-75 -448h586l-23 -135h-585l-84 -501h738l-24 -145h-905zM1043 1677l-401 -189l-43 81l382 228z" />
    <glyph glyph-name="Ntilde" unicode="&#xd1;" horiz-adv-x="1341" 
d="M1085 0h-133l-535 1167l-196 -1167h-135l228 1365h187l497 -1088l182 1088h134zM1116 1701l76 -72q-96 -100 -200 -100q-48 0 -128 34q-86 38 -132 38q-81 0 -134 -66l-83 58q87 128 221 128q47 0 127 -34q88 -37 132 -37q67 0 121 51z" />
    <glyph glyph-name="Odieresis" unicode="&#xd6;" horiz-adv-x="1315" 
d="M629 -27q-235 0 -376 168.5t-141 443.5q0 310 174 559t462 249q228 0 372 -158t144 -434q0 -327 -171 -577.5t-464 -250.5zM629 110q156 0 265.5 118.5t152.5 300t43 307.5q0 197 -98 308t-250 111q-218 0 -336.5 -218.5t-118.5 -486.5q0 -212 96 -326t246 -114z
M1100 1625q0 -43 -31.5 -73t-74.5 -30t-74.5 30t-31.5 72q0 43 31.5 72.5t73.5 29.5q44 0 75.5 -29.5t31.5 -71.5zM778 1624q0 -42 -31.5 -72t-73.5 -30t-72.5 30t-30.5 71q0 43 30.5 72.5t69.5 29.5q48 0 78 -30t30 -71z" />
    <glyph glyph-name="Udieresis" unicode="&#xdc;" horiz-adv-x="1259" 
d="M1254 1365l-139 -832q-38 -226 -93.5 -332t-166.5 -168.5t-268 -62.5q-189 0 -319.5 92t-130.5 293q0 60 32 255l127 755h167l-134 -791q-28 -165 -28 -211q0 -122 83 -188.5t207 -66.5q114 0 195 45t121 122t67 243l142 847h138zM1081 1625q0 -43 -31.5 -73t-74.5 -30
t-74.5 30t-31.5 72q0 43 31.5 72.5t73.5 29.5q44 0 75.5 -29.5t31.5 -71.5zM759 1624q0 -42 -31.5 -72t-73.5 -30t-72.5 30t-30.5 71q0 43 30.5 72.5t69.5 29.5q48 0 78 -30t30 -71z" />
    <glyph glyph-name="aacute" unicode="&#xe1;" horiz-adv-x="1096" 
d="M877 0h-159q-1 31 -1 51q0 78 18 147q-153 -227 -380 -227q-142 0 -232.5 87t-90.5 218q0 147 130 251t485 104q32 0 153 -6q11 65 11 106q0 192 -233 192q-205 0 -293 -171l-148 63q120 230 431 230q172 0 288 -75.5t116 -213.5q0 -56 -77 -526q-21 -127 -21 -187
q0 -9 3 -43zM781 509q-72 6 -138 6q-438 0 -438 -246q0 -76 47.5 -122t132.5 -46q134 0 249.5 115t146.5 293zM944 1356l-401 -189l-43 81l382 228z" />
    <glyph glyph-name="agrave" unicode="&#xe0;" horiz-adv-x="1096" 
d="M877 0h-159q-1 31 -1 51q0 78 18 147q-153 -227 -380 -227q-142 0 -232.5 87t-90.5 218q0 147 130 251t485 104q32 0 153 -6q11 65 11 106q0 192 -233 192q-205 0 -293 -171l-148 63q120 230 431 230q172 0 288 -75.5t116 -213.5q0 -56 -77 -526q-21 -127 -21 -187
q0 -9 3 -43zM781 509q-72 6 -138 6q-438 0 -438 -246q0 -76 47.5 -122t132.5 -46q134 0 249.5 115t146.5 293zM384 1356l62 120l368 -228l-43 -81z" />
    <glyph glyph-name="acircumflex" unicode="&#xe2;" horiz-adv-x="1096" 
d="M877 0h-159q-1 31 -1 51q0 78 18 147q-153 -227 -380 -227q-142 0 -232.5 87t-90.5 218q0 147 130 251t485 104q32 0 153 -6q11 65 11 106q0 192 -233 192q-205 0 -293 -171l-148 63q120 230 431 230q172 0 288 -75.5t116 -213.5q0 -56 -77 -526q-21 -127 -21 -187
q0 -9 3 -43zM781 509q-72 6 -138 6q-438 0 -438 -246q0 -76 47.5 -122t132.5 -46q134 0 249.5 115t146.5 293zM982 1194l-145 -20l-159 137l-202 -137l-144 20l371 260z" />
    <glyph glyph-name="adieresis" unicode="&#xe4;" horiz-adv-x="1096" 
d="M877 0h-159q-1 31 -1 51q0 78 18 147q-153 -227 -380 -227q-142 0 -232.5 87t-90.5 218q0 147 130 251t485 104q32 0 153 -6q11 65 11 106q0 192 -233 192q-205 0 -293 -171l-148 63q120 230 431 230q172 0 288 -75.5t116 -213.5q0 -56 -77 -526q-21 -127 -21 -187
q0 -9 3 -43zM781 509q-72 6 -138 6q-438 0 -438 -246q0 -76 47.5 -122t132.5 -46q134 0 249.5 115t146.5 293zM931 1304q0 -43 -31.5 -73t-74.5 -30t-74.5 30t-31.5 72q0 43 31.5 72.5t73.5 29.5q44 0 75.5 -29.5t31.5 -71.5zM609 1303q0 -42 -31.5 -72t-73.5 -30t-72.5 30
t-30.5 71q0 43 30.5 72.5t69.5 29.5q48 0 78 -30t30 -71z" />
    <glyph glyph-name="atilde" unicode="&#xe3;" horiz-adv-x="1096" 
d="M877 0h-159q-1 31 -1 51q0 78 18 147q-153 -227 -380 -227q-142 0 -232.5 87t-90.5 218q0 147 130 251t485 104q32 0 153 -6q11 65 11 106q0 192 -233 192q-205 0 -293 -171l-148 63q120 230 431 230q172 0 288 -75.5t116 -213.5q0 -56 -77 -526q-21 -127 -21 -187
q0 -9 3 -43zM781 509q-72 6 -138 6q-438 0 -438 -246q0 -76 47.5 -122t132.5 -46q134 0 249.5 115t146.5 293zM940 1380l76 -72q-96 -100 -200 -100q-48 0 -128 34q-86 38 -132 38q-81 0 -134 -66l-83 58q87 128 221 128q47 0 127 -34q88 -37 132 -37q67 0 121 51z" />
    <glyph glyph-name="aring" unicode="&#xe5;" horiz-adv-x="1096" 
d="M877 0h-159q-1 31 -1 51q0 78 18 147q-153 -227 -380 -227q-142 0 -232.5 87t-90.5 218q0 147 130 251t485 104q32 0 153 -6q11 65 11 106q0 192 -233 192q-205 0 -293 -171l-148 63q120 230 431 230q172 0 288 -75.5t116 -213.5q0 -56 -77 -526q-21 -127 -21 -187
q0 -9 3 -43zM781 509q-72 6 -138 6q-438 0 -438 -246q0 -76 47.5 -122t132.5 -46q134 0 249.5 115t146.5 293zM840 1326q0 -71 -50.5 -121.5t-121.5 -50.5t-123 51t-52 122q0 70 51.5 122t127.5 52q67 0 117.5 -51.5t50.5 -123.5zM757 1326q0 38 -25.5 65t-59.5 27
q-43 0 -69.5 -27t-26.5 -63q0 -38 27 -65t65 -27q37 0 63 26.5t26 63.5z" />
    <glyph glyph-name="ccedilla" unicode="&#xe7;" horiz-adv-x="971" 
d="M460 -33l-28 -65q23 1 37 1q55 0 103 -32t48 -92q0 -69 -58 -113.5t-158 -44.5q-98 0 -174 46l31 66q73 -37 138 -37q114 0 114 77q0 67 -119 67q-28 0 -67 -5l60 138q-146 26 -230 145.5t-84 299.5q0 260 138 444t348 184q153 0 260 -100t121 -256l-153 -33
q-15 122 -79.5 187t-151.5 65q-159 0 -237.5 -161t-78.5 -349q0 -145 65.5 -219.5t165.5 -74.5q181 0 280 244l128 -48q-49 -152 -160 -241.5t-259 -92.5z" />
    <glyph glyph-name="eacute" unicode="&#xe9;" horiz-adv-x="1065" 
d="M938 237q-156 -266 -438 -266q-191 0 -311.5 125t-120.5 338q0 262 150 437t372 175q109 0 203.5 -47t147 -147t52.5 -243q0 -51 -9 -116h-747q-6 -48 -6 -79q0 -139 73 -225.5t198 -86.5q86 0 155.5 38.5t149.5 158.5zM257 608h576q2 32 2 48q0 123 -70 196.5t-182 73.5
q-127 0 -215.5 -94.5t-110.5 -223.5zM931 1356l-401 -189l-43 81l382 228z" />
    <glyph glyph-name="egrave" unicode="&#xe8;" horiz-adv-x="1065" 
d="M938 237q-156 -266 -438 -266q-191 0 -311.5 125t-120.5 338q0 262 150 437t372 175q109 0 203.5 -47t147 -147t52.5 -243q0 -51 -9 -116h-747q-6 -48 -6 -79q0 -139 73 -225.5t198 -86.5q86 0 155.5 38.5t149.5 158.5zM257 608h576q2 32 2 48q0 123 -70 196.5t-182 73.5
q-127 0 -215.5 -94.5t-110.5 -223.5zM364 1356l62 120l368 -228l-43 -81z" />
    <glyph glyph-name="ecircumflex" unicode="&#xea;" horiz-adv-x="1065" 
d="M938 237q-156 -266 -438 -266q-191 0 -311.5 125t-120.5 338q0 262 150 437t372 175q109 0 203.5 -47t147 -147t52.5 -243q0 -51 -9 -116h-747q-6 -48 -6 -79q0 -139 73 -225.5t198 -86.5q86 0 155.5 38.5t149.5 158.5zM257 608h576q2 32 2 48q0 123 -70 196.5t-182 73.5
q-127 0 -215.5 -94.5t-110.5 -223.5zM980 1194l-145 -20l-159 137l-202 -137l-144 20l371 260z" />
    <glyph glyph-name="edieresis" unicode="&#xeb;" horiz-adv-x="1065" 
d="M938 237q-156 -266 -438 -266q-191 0 -311.5 125t-120.5 338q0 262 150 437t372 175q109 0 203.5 -47t147 -147t52.5 -243q0 -51 -9 -116h-747q-6 -48 -6 -79q0 -139 73 -225.5t198 -86.5q86 0 155.5 38.5t149.5 158.5zM257 608h576q2 32 2 48q0 123 -70 196.5t-182 73.5
q-127 0 -215.5 -94.5t-110.5 -223.5zM931 1304q0 -43 -31.5 -73t-74.5 -30t-74.5 30t-31.5 72q0 43 31.5 72.5t73.5 29.5q44 0 75.5 -29.5t31.5 -71.5zM609 1303q0 -42 -31.5 -72t-73.5 -30t-72.5 30t-30.5 71q0 43 30.5 72.5t69.5 29.5q48 0 78 -30t30 -71z" />
    <glyph glyph-name="iacute" unicode="&#xed;" horiz-adv-x="470" 
d="M229 0h-156l170 1014h155zM648 1356l-401 -189l-43 81l382 228z" />
    <glyph glyph-name="igrave" unicode="&#xec;" horiz-adv-x="470" 
d="M236 0h-156l170 1014h155zM73 1356l62 120l368 -228l-43 -81z" />
    <glyph glyph-name="icircumflex" unicode="&#xee;" horiz-adv-x="470" 
d="M229 0h-156l170 1014h155zM672 1194l-145 -20l-159 137l-202 -137l-144 20l371 260z" />
    <glyph glyph-name="idieresis" unicode="&#xef;" horiz-adv-x="470" 
d="M229 0h-156l170 1014h155zM656 1304q0 -43 -31.5 -73t-74.5 -30t-74.5 30t-31.5 72q0 43 31.5 72.5t73.5 29.5q44 0 75.5 -29.5t31.5 -71.5zM334 1303q0 -42 -31.5 -72t-73.5 -30t-72.5 30t-30.5 71q0 43 30.5 72.5t69.5 29.5q48 0 78 -30t30 -71z" />
    <glyph glyph-name="ntilde" unicode="&#xf1;" horiz-adv-x="1122" 
d="M880 0h-149l98 583q17 100 17 145q0 79 -49 134.5t-141 55.5q-113 0 -215.5 -110t-160.5 -445l-63 -363h-145l170 1013h135l-38 -226q131 255 356 255q133 0 216.5 -81.5t83.5 -213.5q0 -60 -17 -162zM960 1380l76 -72q-96 -100 -200 -100q-48 0 -128 34q-86 38 -132 38
q-81 0 -134 -66l-83 58q87 128 221 128q47 0 127 -34q88 -37 132 -37q67 0 121 51z" />
    <glyph glyph-name="oacute" unicode="&#xf3;" horiz-adv-x="1066" 
d="M483 -30q-189 0 -298 131.5t-109 336.5q0 232 143 416t367 184q185 0 295 -126.5t110 -344.5q0 -226 -141 -411.5t-367 -185.5zM490 96q161 0 248 159t87 365q0 156 -73.5 225.5t-174.5 69.5q-159 0 -246 -158t-87 -355q0 -151 67 -228.5t179 -77.5zM959 1356l-401 -189
l-43 81l382 228z" />
    <glyph glyph-name="ograve" unicode="&#xf2;" horiz-adv-x="1066" 
d="M483 -30q-189 0 -298 131.5t-109 336.5q0 232 143 416t367 184q185 0 295 -126.5t110 -344.5q0 -226 -141 -411.5t-367 -185.5zM490 96q161 0 248 159t87 365q0 156 -73.5 225.5t-174.5 69.5q-159 0 -246 -158t-87 -355q0 -151 67 -228.5t179 -77.5zM378 1356l62 120
l368 -228l-43 -81z" />
    <glyph glyph-name="ocircumflex" unicode="&#xf4;" horiz-adv-x="1066" 
d="M483 -30q-189 0 -298 131.5t-109 336.5q0 232 143 416t367 184q185 0 295 -126.5t110 -344.5q0 -226 -141 -411.5t-367 -185.5zM490 96q161 0 248 159t87 365q0 156 -73.5 225.5t-174.5 69.5q-159 0 -246 -158t-87 -355q0 -151 67 -228.5t179 -77.5zM987 1194l-145 -20
l-159 137l-202 -137l-144 20l371 260z" />
    <glyph glyph-name="odieresis" unicode="&#xf6;" horiz-adv-x="1066" 
d="M483 -30q-189 0 -298 131.5t-109 336.5q0 232 143 416t367 184q185 0 295 -126.5t110 -344.5q0 -226 -141 -411.5t-367 -185.5zM490 96q161 0 248 159t87 365q0 156 -73.5 225.5t-174.5 69.5q-159 0 -246 -158t-87 -355q0 -151 67 -228.5t179 -77.5zM938 1304
q0 -43 -31.5 -73t-74.5 -30t-74.5 30t-31.5 72q0 43 31.5 72.5t73.5 29.5q44 0 75.5 -29.5t31.5 -71.5zM616 1303q0 -42 -31.5 -72t-73.5 -30t-72.5 30t-30.5 71q0 43 30.5 72.5t69.5 29.5q48 0 78 -30t30 -71z" />
    <glyph glyph-name="otilde" unicode="&#xf5;" horiz-adv-x="1066" 
d="M483 -30q-189 0 -298 131.5t-109 336.5q0 232 143 416t367 184q185 0 295 -126.5t110 -344.5q0 -226 -141 -411.5t-367 -185.5zM490 96q161 0 248 159t87 365q0 156 -73.5 225.5t-174.5 69.5q-159 0 -246 -158t-87 -355q0 -151 67 -228.5t179 -77.5zM940 1380l76 -72
q-96 -100 -200 -100q-48 0 -128 34q-86 38 -132 38q-81 0 -134 -66l-83 58q87 128 221 128q47 0 127 -34q88 -37 132 -37q67 0 121 51z" />
    <glyph glyph-name="uacute" unicode="&#xfa;" horiz-adv-x="1111" 
d="M1044 1014l-170 -1014h-136l41 245q-135 -272 -369 -272q-91 0 -156.5 42.5t-94.5 100.5t-29 146q0 57 22 185l97 567h156l-103 -616q-18 -105 -18 -129q0 -79 46 -123.5t121 -44.5q126 0 233 137.5t149 386.5l65 389h146zM991 1356l-401 -189l-43 81l382 228z" />
    <glyph glyph-name="ugrave" unicode="&#xf9;" horiz-adv-x="1111" 
d="M1044 1014l-170 -1014h-136l41 245q-135 -272 -369 -272q-91 0 -156.5 42.5t-94.5 100.5t-29 146q0 57 22 185l97 567h156l-103 -616q-18 -105 -18 -129q0 -79 46 -123.5t121 -44.5q126 0 233 137.5t149 386.5l65 389h146zM410 1356l62 120l368 -228l-43 -81z" />
    <glyph glyph-name="ucircumflex" unicode="&#xfb;" horiz-adv-x="1111" 
d="M1044 1014l-170 -1014h-136l41 245q-135 -272 -369 -272q-91 0 -156.5 42.5t-94.5 100.5t-29 146q0 57 22 185l97 567h156l-103 -616q-18 -105 -18 -129q0 -79 46 -123.5t121 -44.5q126 0 233 137.5t149 386.5l65 389h146zM1005 1194l-145 -20l-159 137l-202 -137
l-144 20l371 260z" />
    <glyph glyph-name="udieresis" unicode="&#xfc;" horiz-adv-x="1111" 
d="M1044 1014l-170 -1014h-136l41 245q-135 -272 -369 -272q-91 0 -156.5 42.5t-94.5 100.5t-29 146q0 57 22 185l97 567h156l-103 -616q-18 -105 -18 -129q0 -79 46 -123.5t121 -44.5q126 0 233 137.5t149 386.5l65 389h146zM958 1304q0 -43 -31.5 -73t-74.5 -30t-74.5 30
t-31.5 72q0 43 31.5 72.5t73.5 29.5q44 0 75.5 -29.5t31.5 -71.5zM636 1303q0 -42 -31.5 -72t-73.5 -30t-72.5 30t-30.5 71q0 43 30.5 72.5t69.5 29.5q48 0 78 -30t30 -71z" />
    <glyph glyph-name="dagger" unicode="&#x2020;" horiz-adv-x="1201" 
d="M671 1365h147l-67 -398h380l-23 -136h-380l-196 -1172h-146l196 1172h-380l23 136h380z" />
    <glyph glyph-name="degree" unicode="&#xb0;" horiz-adv-x="1201" 
d="M432 1122q0 111 79.5 191t191.5 80t191.5 -79.5t79.5 -191.5q0 -111 -80 -190.5t-195 -79.5q-108 0 -187.5 79.5t-79.5 190.5zM548 1123q0 -65 45.5 -110t104.5 -45q68 0 114 45.5t46 109.5t-45.5 109.5t-110.5 45.5q-63 0 -108.5 -45.5t-45.5 -109.5z" />
    <glyph glyph-name="cent" unicode="&#xa2;" horiz-adv-x="1201" 
d="M566 -102h-105l56 332q-128 28 -195 135.5t-67 251.5q0 193 115.5 343.5t293.5 150.5l45 268h105l-47 -280q190 -43 249 -267l-115 -38q-56 174 -152 195l-110 -658q131 5 216 189l104 -47q-109 -256 -340 -257zM536 343l109 652q-111 -10 -176.5 -128.5t-65.5 -269.5
q0 -206 133 -254z" />
    <glyph glyph-name="sterling" unicode="&#xa3;" horiz-adv-x="1201" 
d="M1126 216q-67 -99 -122.5 -140.5t-125.5 -58.5t-241 -17h-696l24 145q149 2 216 21.5t129.5 87.5t81 156t18.5 239h-217l19 114h201q2 155 18 242.5t73.5 176t147 141t190.5 52.5q191 0 298 -173l-124 -85q-60 125 -177 125q-54 0 -101.5 -23t-81.5 -65t-48.5 -96.5
t-16.5 -130.5l-4 -164h289l-20 -114h-272q-3 -365 -235 -504h287q134 0 187.5 10t97.5 42t93 104z" />
    <glyph glyph-name="section" unicode="&#xa7;" horiz-adv-x="1201" 
d="M35 -72l173 28q97 -186 323 -186q122 0 201.5 59t79.5 155q0 71 -51.5 117t-272.5 117q-170 55 -239.5 115.5t-69.5 183.5q0 184 238 305q-120 86 -120 233q0 150 107.5 244t285.5 94q345 0 426 -266l-158 -17q-63 160 -258 160q-110 0 -175 -50.5t-65 -133.5
q0 -73 51.5 -113.5t260.5 -118.5q121 -46 167 -82t74 -93t28 -119q0 -155 -212 -288q155 -82 155 -261q0 -162 -123.5 -271t-335.5 -109q-173 0 -308.5 82t-181.5 215zM701 321q181 79 181 198q0 52 -28.5 92t-75 62t-164.5 62q-42 14 -75 29q-193 -94 -193 -206
q0 -57 43.5 -101.5t311.5 -135.5z" />
    <glyph glyph-name="bullet" unicode="&#x2022;" horiz-adv-x="1365" 
d="M998 696q0 -117 -82.5 -201.5t-198.5 -84.5q-119 0 -200.5 84.5t-81.5 201.5q0 118 82.5 202t199.5 84q116 0 198.5 -84t82.5 -202z" />
    <glyph glyph-name="paragraph" unicode="&#xb6;" horiz-adv-x="1201" 
d="M1236 1365l-16 -95h-136l-270 -1611h-99l269 1611h-98l-270 -1611h-99l178 1066h-109q-157 0 -227 25t-109 93t-39 162q0 118 53 202t139.5 121t293.5 37h539zM711 821l75 449h-70q-151 0 -210 -24.5t-94.5 -84.5t-35.5 -154q0 -80 44.5 -133t189.5 -53h101z" />
    <glyph glyph-name="germandbls" unicode="&#xdf;" horiz-adv-x="1135" 
d="M217 -60h-156l147 878h-104l21 126l104 -1q99 508 494 508q151 0 242 -78t91 -188q0 -139 -117.5 -229t-350.5 -90q-17 -13 -17 -27q0 -15 17 -28t113 -49q138 -52 206 -94t111 -113t43 -155q0 -164 -125.5 -294t-344.5 -130q-130 0 -244 50l44 120q95 -38 201 -38
q132 0 215 74.5t83 179.5q0 76 -42 120t-188 116q-154 76 -190 113t-36 88q0 79 68 152q396 43 396 227q0 61 -50.5 103.5t-142.5 42.5q-97 0 -167 -52t-101.5 -130.5t-56.5 -224.5z" />
    <glyph glyph-name="registered" unicode="&#xae;" horiz-adv-x="1584" 
d="M1527 683q0 -291 -207.5 -498.5t-498.5 -207.5t-498.5 207.5t-207.5 498.5q0 290 207.5 498t498.5 208t498.5 -208t207.5 -498zM1426 683q0 249 -178 426.5t-427 177.5t-427 -177.5t-178 -426.5q0 -250 177 -427.5t428 -177.5q249 0 427 178t178 427zM871 626h-231
l-59 -353h-125l137 819h276q318 0 318 -223q0 -82 -55 -145t-138 -78l123 -373h-132zM656 720h183q131 0 176 42.5t45 110.5q0 127 -174 127h-183z" />
    <glyph glyph-name="copyright" unicode="&#xa9;" horiz-adv-x="1584" 
d="M1527 683q0 -291 -207.5 -498.5t-498.5 -207.5t-498.5 207.5t-207.5 498.5q0 290 207.5 498t498.5 208t498.5 -208t207.5 -498zM1426 683q0 249 -178 426.5t-427 177.5t-427 -177.5t-178 -426.5q0 -250 177 -427.5t428 -177.5q249 0 427 178t178 427zM1172 833l-114 -27
q-24 211 -191 211q-130 0 -198 -136.5t-68 -276.5q0 -121 53.5 -185.5t140.5 -64.5q137 0 220 194l104 -38q-92 -251 -328 -251q-157 0 -239 104.5t-82 252.5q0 196 111 346t284 150q113 0 199.5 -63t107.5 -216z" />
    <glyph glyph-name="trademark" unicode="&#x2122;" horiz-adv-x="1628" 
d="M736 1274h-241l-115 -687h-123l115 687h-242l15 91h607zM1548 587h-123l109 652l-361 -652h-95l-148 642l-107 -642h-107l130 778h174l140 -605l336 605h183z" />
    <glyph glyph-name="acute" unicode="&#xb4;" horiz-adv-x="1024" 
d="M945 1356l-401 -189l-43 81l382 228z" />
    <glyph glyph-name="dieresis" unicode="&#xa8;" horiz-adv-x="1024" 
d="M911 1304q0 -43 -31.5 -73t-74.5 -30t-74.5 30t-31.5 72q0 43 31.5 72.5t73.5 29.5q44 0 75.5 -29.5t31.5 -71.5zM589 1303q0 -42 -31.5 -72t-73.5 -30t-72.5 30t-30.5 71q0 43 30.5 72.5t69.5 29.5q48 0 78 -30t30 -71z" />
    <glyph glyph-name="notequal" unicode="&#x2260;" horiz-adv-x="1124" 
d="M1106 279h-621l-184 -330l-100 57l151 273h-321v112h385l157 285h-542v112h606l186 336l101 -57l-156 -279h338v-112h-399l-160 -285h559v-112z" />
    <glyph glyph-name="AE" unicode="&#xc6;" horiz-adv-x="1790" 
d="M1637 0h-909l79 471h-397l-349 -471h-173l1022 1365h902l-22 -135h-690l-75 -449h590l-22 -134h-590l-84 -502h742zM828 601l97 575l-423 -575h326z" />
    <glyph glyph-name="Oslash" unicode="&#xd8;" horiz-adv-x="1315" 
d="M300 91l-105 -139h-146l173 231q-110 163 -110 404q0 307 174.5 556.5t459.5 249.5q188 0 328 -114l113 141h150l-181 -230q108 -168 108 -390q0 -339 -175.5 -583.5t-450.5 -244.5q-191 0 -338 119zM334 304l637 863q-103 88 -231 88q-210 0 -331 -215t-121 -496
q0 -137 46 -240zM400 203q96 -92 228 -92q221 0 341.5 223t120.5 509q0 120 -48 226z" />
    <glyph glyph-name="infinity" unicode="&#x221e;" horiz-adv-x="1460" 
d="M653 668q71 169 159 222.5t212 53.5q161 0 272 -116.5t111 -301.5q0 -186 -111.5 -303t-238.5 -117q-95 0 -170.5 63t-165.5 224q-117 -233 -324 -233q-149 0 -246.5 104.5t-97.5 263.5q0 157 89 262t218 105q80 0 149 -42t144 -185zM750 465q64 -138 134.5 -201
t176.5 -63q126 0 207.5 91t81.5 234q0 140 -84 240t-199 100q-55 0 -97.5 -21.5t-74.5 -62t-64 -116.5zM614 557l11 33q-96 215 -267 215q-110 0 -179.5 -76.5t-69.5 -198.5q0 -123 66.5 -207.5t162.5 -84.5q82 0 149.5 65t126.5 254z" />
    <glyph glyph-name="plusminus" unicode="&#xb1;" horiz-adv-x="1201" 
d="M125 753h403v421h150v-421h403v-138h-403v-421h-150v421h-403v138zM125 71h956v-139h-956v139z" />
    <glyph glyph-name="lessequal" unicode="&#x2264;" horiz-adv-x="1124" 
d="M1077 240l-1018 471v127l1018 471v-127l-887 -408l887 -407v-127zM1077 0h-1018v112h1018v-112z" />
    <glyph glyph-name="greaterequal" unicode="&#x2265;" horiz-adv-x="1124" 
d="M1077 711l-1018 -471v127l887 407l-887 408v127l1018 -471v-127zM1077 0h-1018v112h1018v-112z" />
    <glyph glyph-name="yen" unicode="&#xa5;" horiz-adv-x="1200" 
d="M194 847h229l-209 518h172l261 -646l448 646h158l-365 -518h251l-17 -103h-306l-121 -172l-5 -26h399l-17 -102h-399l-74 -444h-160l74 444h-386l17 102h387l4 26l-70 172h-288z" />
    <glyph glyph-name="uni00B5" unicode="&#xb5;" horiz-adv-x="1201" 
d="M56 -341l227 1355h156l-96 -568q-13 -78 -13 -127q0 -76 51.5 -142t145.5 -66q255 0 313 348l93 555h156l-170 -1014h-142l28 168q-70 -116 -137 -155.5t-152 -39.5q-164 0 -224 167l-80 -481h-156z" />
    <glyph glyph-name="partialdiff" unicode="&#x2202;" horiz-adv-x="1012" 
d="M295 1120h-45q131 303 379 303q161 0 263.5 -127t102.5 -376q0 -358 -164.5 -654.5t-427.5 -296.5q-155 0 -246 91t-91 245q0 239 166.5 420.5t383.5 181.5q222 0 312 -190h4q10 144 10 186q0 175 -92.5 276t-253.5 101q-194 0 -301 -160zM911 629q-81 225 -284 225
q-178 0 -286 -190.5t-108 -399.5q0 -108 54 -172.5t143 -64.5q136 0 279.5 162.5t201.5 439.5z" />
    <glyph glyph-name="summation" unicode="&#x2211;" horiz-adv-x="1460" 
d="M1423 238q-32 -125 -54 -240t-34 -219q-63 11 -102.5 16.5t-54.5 5.5h-1031q-20 0 -59 -3t-59 -3l714 815l-710 930q70 -7 123 -10.5t90 -3.5h1018l12 -326h-41q-31 102 -52.5 141t-81.5 66q-30 13 -74.5 20t-104.5 7h-539l559 -734l-602 -694h760q127 0 177.5 52
t98.5 180h47z" />
    <glyph glyph-name="product" unicode="&#x220f;" horiz-adv-x="1686" 
d="M1645 -207h-629v47q120 0 159.5 41t39.5 125v1419h-734v-1419q0 -84 39.5 -125t159.5 -41v-47h-629v47q122 0 160.5 41t38.5 125v1282q0 101 -48.5 152t-146.5 51v47h1586v-47q-98 0 -146.5 -51t-48.5 -152v-1282q0 -84 38.5 -125t160.5 -41v-47z" />
    <glyph glyph-name="uniF006" unicode="&#xf006;" horiz-adv-x="1124" 
d="M1085 309q-5 -155 -75.5 -248.5t-167.5 -93.5q-79 0 -138.5 91.5t-59.5 281.5q0 42 2 80t5 72l35 329h-231q-60 -624 -98.5 -742.5t-130.5 -118.5q-39 0 -74 31t-35 82q0 46 72.5 128.5t80.5 150.5l60 469h-97q-40 0 -78.5 -19.5t-56.5 -45.5l-43 -64h-35
q49 152 120.5 228.5t164.5 76.5h764v-176h-258q-12 -120 -18.5 -240t-6.5 -241q0 -82 38 -133t95 -51q35 0 73.5 28.5t43.5 74.5q3 22 4.5 34.5t1.5 15.5h43z" />
    <glyph glyph-name="integral" unicode="&#x222b;" horiz-adv-x="561" 
d="M602 1760q0 -39 -29.5 -64t-75.5 -25q-37 0 -60 25t-44 25q-18 0 -27.5 -14.5t-9.5 -43.5q0 -34 19.5 -256t19.5 -551q0 -505 -30 -709.5t-79 -282.5q-26 -41 -67.5 -62t-85.5 -21q-49 0 -86 35t-37 85q0 38 25.5 65t64.5 27q34 0 65.5 -33t44.5 -33q25 0 39.5 44.5
t14.5 153.5q0 37 -6 197t-6 562q0 481 17 638.5t41 215.5q29 70 69 104t84 34q57 0 98 -32.5t41 -83.5z" />
    <glyph glyph-name="ordfeminine" unicode="&#xaa;" horiz-adv-x="721" 
d="M677 763h-121q-1 20 -1 42q0 17 2 42q-85 -101 -217 -101q-92 0 -151.5 53.5t-59.5 130.5q0 219 389 219q38 0 87 -3q5 30 5 53q0 108 -136 108q-121 0 -174 -104l-111 44q79 146 281 146q110 0 185.5 -47t75.5 -130q0 -41 -45 -310q-12 -73 -12 -109q0 -3 3 -34z
M591 1064q-39 3 -76 3q-257 0 -257 -138q0 -93 102 -93q79 0 145.5 64t85.5 164z" />
    <glyph glyph-name="ordmasculine" unicode="&#xba;" horiz-adv-x="702" 
d="M421 749q-122 0 -193.5 80t-71.5 205q0 142 91.5 250.5t234.5 108.5q122 0 192.5 -79.5t70.5 -199.5q0 -150 -92.5 -257.5t-231.5 -107.5zM426 837q94 0 143.5 91.5t49.5 204.5q0 95 -43.5 134.5t-101.5 39.5q-92 0 -142 -91.5t-50 -200.5q0 -178 144 -178z" />
    <glyph glyph-name="uni2126" unicode="&#x2126;" horiz-adv-x="1573" 
d="M1506 0h-604l33 311q161 59 226 200t65 313q0 227 -107 373t-331 146t-331 -146t-107 -373q0 -172 65 -313t226 -200l33 -311h-604v332h30q16 -66 40 -95.5t96 -29.5h323l-4 57q-238 65 -341 221t-103 332q0 259 192 425.5t485 166.5t485 -166.5t192 -425.5
q0 -176 -103 -332t-341 -221l-4 -57h323q72 0 96 29.5t40 95.5h30v-332z" />
    <glyph glyph-name="ae" unicode="&#xe6;" horiz-adv-x="1723" 
d="M1598 237q-154 -267 -431 -267q-137 0 -245.5 69t-158.5 202q-177 -267 -418 -267q-142 0 -229.5 83t-87.5 215q0 149 126 252t441 103q49 0 178 -7q13 55 13 102q0 201 -232 201q-185 0 -276 -168l-143 60q128 227 409 227q243 0 353 -154q148 152 352 152
q182 0 291.5 -115t109.5 -314q0 -52 -8 -118h-739q-8 -49 -8 -87q0 -142 78.5 -225t193.5 -83q181 0 301 195zM922 603h572q2 29 2 46q0 134 -74.5 205.5t-181.5 71.5q-118 0 -206 -89t-112 -234zM757 508q-70 9 -143 9q-241 0 -331 -73t-90 -177q0 -66 43 -116.5t131 -50.5
q144 0 260 131.5t130 276.5z" />
    <glyph glyph-name="oslash" unicode="&#xf8;" horiz-adv-x="1066" 
d="M1088 1070l-174 -203q77 -123 77 -287q0 -246 -144 -428.5t-361 -182.5q-149 0 -258 88l-97 -112h-128l156 190q-83 126 -83 304q0 232 143 415.5t369 183.5q151 0 256 -90l106 122h138zM266 251l482 597q-72 67 -174 67q-157 0 -244 -158t-87 -361q0 -79 23 -145z
M805 758l-482 -599q67 -63 163 -63q164 0 251 158t87 364q0 79 -19 140z" />
    <glyph glyph-name="questiondown" unicode="&#xbf;" horiz-adv-x="1019" 
d="M526 675h142q-15 -152 -39.5 -217t-64.5 -98t-155 -87q-102 -48 -145 -79.5t-72.5 -84.5t-29.5 -118q0 -110 78.5 -173t183.5 -63q224 0 325 274l140 -58q-137 -351 -469 -351q-183 0 -304 105t-121 267q0 77 33.5 155t99.5 133.5t239 124.5q90 36 119 81.5t40 188.5z
M550 1024h206l-33 -197h-206z" />
    <glyph glyph-name="exclamdown" unicode="&#xa1;" horiz-adv-x="548" 
d="M254 673h85l-90 -1014h-226zM258 1024h206l-33 -195h-206z" />
    <glyph glyph-name="logicalnot" unicode="&#xac;" horiz-adv-x="1201" 
d="M1075 0h-152v408h-631l-104 102v36h887v-546z" />
    <glyph glyph-name="radical" unicode="&#x221a;" horiz-adv-x="1124" 
d="M1055 1868l-307 -1946l-498 1028l-197 -96l-33 68l299 147l404 -825l260 1634z" />
    <glyph glyph-name="florin" unicode="&#x192;" horiz-adv-x="1201" 
d="M-73 -277l46 138q28 -3 46 -3q96 0 158 29t94.5 81.5t85.5 204.5l286 826h-187l42 132h189l22 57q127 316 444 316q27 0 69 -3l-48 -136l-28 1q-110 0 -178 -56.5t-111 -178.5h237l-50 -132h-237l-309 -900q-74 -217 -180.5 -298t-298.5 -81q-41 0 -92 3z" />
    <glyph glyph-name="approxequal" unicode="&#x2248;" horiz-adv-x="1124" 
d="M1022 874h51q-21 -155 -95.5 -238t-186.5 -83q-97 0 -304 117q-139 78 -211 78q-149 0 -178 -187h-47q20 154 93.5 238t181.5 84q47 0 107 -19.5t224 -107.5q118 -62 193 -62q144 0 172 180zM1022 487h51q-21 -155 -95.5 -238t-186.5 -83q-96 0 -268.5 97t-246.5 97
q-149 0 -178 -186h-47q20 153 93.5 236.5t181.5 83.5q47 0 112 -21.5t219 -103.5q118 -62 193 -62q144 0 172 180z" />
    <glyph glyph-name="uni2206" unicode="&#x2206;" horiz-adv-x="1253" 
d="M668 1409l577 -1409h-1233zM594 1059l-447 -959h844z" />
    <glyph glyph-name="guillemotleft" unicode="&#xab;" horiz-adv-x="691" 
d="M294 216h-73l-141 280l203 289h87l-142 -289zM546 216h-74l-135 280l205 289h96l-150 -289z" />
    <glyph glyph-name="guillemotright" unicode="&#xbb;" horiz-adv-x="690" 
d="M394 785h74l141 -280l-203 -289h-87l142 289zM143 785h74l135 -280l-205 -289h-96l149 289z" />
    <glyph glyph-name="ellipsis" unicode="&#x2026;" horiz-adv-x="1535" 
d="M284 0h-225l38 229h226zM795 0h-224l38 229h224zM1307 0h-225l38 229h225z" />
    <glyph glyph-name="uni00A0" unicode="&#xa0;" horiz-adv-x="512" 
 />
    <glyph glyph-name="Agrave" unicode="&#xc0;" horiz-adv-x="1155" 
d="M792 400h-498l-196 -400h-155l669 1365h189l238 -1365h-176zM772 537l-105 627l-308 -627h413zM415 1677l62 120l368 -228l-43 -81z" />
    <glyph glyph-name="Atilde" unicode="&#xc3;" horiz-adv-x="1155" 
d="M792 400h-498l-196 -400h-155l669 1365h189l238 -1365h-176zM772 537l-105 627l-308 -627h413zM986 1701l76 -72q-96 -100 -200 -100q-48 0 -128 34q-86 38 -132 38q-81 0 -134 -66l-83 58q87 128 221 128q47 0 127 -34q88 -37 132 -37q67 0 121 51z" />
    <glyph glyph-name="Otilde" unicode="&#xd5;" horiz-adv-x="1315" 
d="M629 -27q-235 0 -376 168.5t-141 443.5q0 310 174 559t462 249q228 0 372 -158t144 -434q0 -327 -171 -577.5t-464 -250.5zM629 110q156 0 265.5 118.5t152.5 300t43 307.5q0 197 -98 308t-250 111q-218 0 -336.5 -218.5t-118.5 -486.5q0 -212 96 -326t246 -114z
M1056 1700l76 -72q-96 -100 -200 -100q-48 0 -128 34q-86 38 -132 38q-81 0 -134 -66l-83 58q87 128 221 128q47 0 127 -34q88 -37 132 -37q67 0 121 51z" />
    <glyph glyph-name="OE" unicode="&#x152;" horiz-adv-x="2001" 
d="M1848 0h-907l10 84q-135 -107 -307 -107q-245 0 -388 170.5t-143 432.5q0 331 177.5 572.5t465.5 241.5q84 0 179.5 -28t211.5 -136l23 135h852l-23 -138h-686l-74 -446h584l-22 -134h-585l-84 -502h740zM1000 353l112 668q-46 120 -145.5 177.5t-208.5 57.5
q-220 0 -345.5 -215t-125.5 -478q0 -224 102 -336t265 -112q107 0 204 62.5t142 175.5z" />
    <glyph glyph-name="oe" unicode="&#x153;" horiz-adv-x="1834" 
d="M1710 232q-164 -258 -429 -258q-251 0 -380 210q-155 -213 -399 -213q-187 0 -306.5 132t-119.5 344q0 220 146 406t381 186q241 0 360 -201q165 207 394 207q187 0 296 -116.5t109 -336.5q0 -45 -9 -99h-743q-5 -50 -5 -83q0 -141 75.5 -224.5t198.5 -83.5
q175 0 301 194zM1029 606h576q3 31 3 49q0 121 -66.5 197.5t-187.5 76.5q-127 0 -212 -89.5t-113 -233.5zM515 98q158 0 251 151.5t93 365.5q0 158 -75.5 229t-185.5 71q-169 0 -256.5 -156.5t-87.5 -354.5q0 -159 76 -232.5t185 -73.5z" />
    <glyph glyph-name="endash" unicode="&#x2013;" horiz-adv-x="1201" 
d="M996 452h-810l19 116h810z" />
    <glyph glyph-name="emdash" unicode="&#x2014;" horiz-adv-x="1365" 
d="M1353 452h-1359l19 116h1359z" />
    <glyph glyph-name="quotedblleft" unicode="&#x201c;" horiz-adv-x="765" 
d="M692 930h-195l31 187l194 248h76l-164 -248h89zM413 930h-199l31 187l198 248h77l-163 -248h88z" />
    <glyph glyph-name="quotedblright" unicode="&#x201d;" horiz-adv-x="765" 
d="M287 1365h197l-31 -187l-196 -248h-76l165 248h-90zM566 1365h199l-31 -187l-198 -248h-76l162 248h-88z" />
    <glyph glyph-name="quoteleft" unicode="&#x2018;" horiz-adv-x="512" 
d="M423 911h-198l32 192l202 262h79l-171 -262h88z" />
    <glyph glyph-name="quoteright" unicode="&#x2019;" horiz-adv-x="512" 
d="M300 1365h198l-32 -192l-202 -262h-79l171 262h-88z" />
    <glyph glyph-name="divide" unicode="&#xf7;" horiz-adv-x="1201" 
d="M725 992q0 -40 -28.5 -68t-67.5 -28t-67.5 28t-28.5 68t28.5 68t67.5 28q40 0 68 -28t28 -68zM152 753h956v-138h-956v138zM725 388q0 -40 -28.5 -68t-67.5 -28q-40 0 -68 28t-28 68t28 68.5t68 28.5t68 -28.5t28 -68.5z" />
    <glyph glyph-name="lozenge" unicode="&#x25ca;" horiz-adv-x="1012" 
d="M962 763l-397 -763h-122l-397 763l397 763h122zM839 763l-335 652l-335 -652l335 -652z" />
    <glyph glyph-name="ydieresis" unicode="&#xff;" horiz-adv-x="870" 
d="M941 1014l-556 -1069q-103 -199 -193 -250t-190 -51q-42 0 -100 7l23 136q51 -10 86 -10q161 0 248 180l35 71l-212 986h160l164 -771l399 771h136zM791 1304q0 -43 -31.5 -73t-74.5 -30t-74.5 30t-31.5 72q0 43 31.5 72.5t73.5 29.5q44 0 75.5 -29.5t31.5 -71.5z
M469 1303q0 -42 -31.5 -72t-73.5 -30t-72.5 30t-30.5 71q0 43 30.5 72.5t69.5 29.5q48 0 78 -30t30 -71z" />
    <glyph glyph-name="Ydieresis" unicode="&#x178;" horiz-adv-x="1049" 
d="M532 0h-172l95 572l-348 793h183l284 -646l472 646h168l-587 -793zM960 1625q0 -43 -31.5 -73t-74.5 -30t-74.5 30t-31.5 72q0 43 31.5 72.5t73.5 29.5q44 0 75.5 -29.5t31.5 -71.5zM638 1624q0 -42 -31.5 -72t-73.5 -30t-72.5 30t-30.5 71q0 43 30.5 72.5t69.5 29.5
q48 0 78 -30t30 -71z" />
    <glyph glyph-name="fraction" unicode="&#x2215;" horiz-adv-x="218" 
d="M-331 0h-129l1066 1365h128z" />
    <glyph glyph-name="Euro" unicode="&#x20ac;" horiz-adv-x="1200" 
d="M1278 1010l-168 -23q-35 270 -256 270q-120 0 -230.5 -88t-177.5 -290h402l-17 -117h-415q-16 -90 -21 -148h416l-16 -116h-404q7 -208 97.5 -298.5t197.5 -90.5q233 0 350 292l154 -28q-87 -205 -213.5 -302.5t-314.5 -97.5q-193 0 -312 137t-133 388h-141l16 116h127
q8 82 21 148h-127l16 117h141q86 269 255.5 391.5t348.5 122.5q362 0 404 -383z" />
    <glyph glyph-name="guilsinglleft" unicode="&#x2039;" horiz-adv-x="433" 
d="M289 216h-74l-135 280l204 289h97l-150 -289z" />
    <glyph glyph-name="guilsinglright" unicode="&#x203a;" horiz-adv-x="433" 
d="M143 785h74l135 -280l-205 -289h-96l149 289z" />
    <glyph glyph-name="fi" unicode="&#xfb01;" horiz-adv-x="994" 
d="M262 0h-158l149 892h-190l21 122h189q46 221 129.5 303.5t243.5 82.5q58 0 105 -9l-31 -121q-36 4 -65 4q-81 0 -137 -42.5t-86 -217.5h246l-21 -122h-246zM978 1185h-204l30 180h204zM752 0h-157l170 1014h157z" />
    <glyph glyph-name="fl" unicode="&#xfb02;" horiz-adv-x="994" 
d="M262 0h-158l149 892h-190l21 122h189q45 222 132 303.5t256 81.5q47 0 90 -8l-31 -123q-33 6 -68 6q-93 0 -142 -47t-78 -213h246l-21 -122h-246zM752 0h-157l229 1365h157z" />
    <glyph glyph-name="daggerdbl" unicode="&#x2021;" horiz-adv-x="1201" 
d="M672 1365h146l-67 -398h380l-22 -136h-380l-105 -625h380l-23 -135h-380l-69 -412h-146l69 412h-380l23 135h380l104 625h-380l23 136h380z" />
    <glyph glyph-name="periodcentered" unicode="&#x2219;" horiz-adv-x="264" 
d="M225 391h-225l38 229h226z" />
    <glyph glyph-name="quotesinglbase" unicode="&#x201a;" horiz-adv-x="512" 
d="M104 193h198l-32 -193l-202 -262h-79l171 262h-88z" />
    <glyph glyph-name="quotedblbase" unicode="&#x201e;" horiz-adv-x="765" 
d="M90 187h197l-31 -187l-196 -249h-76l165 249h-90zM369 187h199l-31 -187l-198 -249h-76l162 249h-88z" />
    <glyph glyph-name="perthousand" unicode="&#x2030;" horiz-adv-x="2319" 
d="M438 679q-122 0 -202 90.5t-80 224.5q0 155 96 277t248 122q136 0 211.5 -97.5t75.5 -218.5q0 -152 -99.5 -275t-249.5 -123zM451 780q96 0 153.5 94t57.5 238q0 77 -45.5 129t-120.5 52q-109 0 -161.5 -104.5t-52.5 -212.5q0 -82 45.5 -139t123.5 -57zM352 0h-130
l1066 1365h128zM1151 -23q-140 0 -219 94t-79 229q0 144 100.5 268.5t241.5 124.5q131 0 211 -93t80 -226q0 -156 -97 -276.5t-238 -120.5zM1145 76q95 0 154.5 87.5t59.5 243.5q0 100 -52.5 143.5t-113.5 43.5q-96 0 -154 -93.5t-58 -219.5q0 -101 46.5 -153t117.5 -52z
M1887 -23q-138 0 -218 94t-80 229q0 144 100.5 268.5t241.5 124.5q128 0 209 -92t81 -227q0 -156 -96.5 -276.5t-237.5 -120.5zM1881 76q95 0 154.5 87.5t59.5 243.5q0 100 -52.5 143.5t-113.5 43.5q-96 0 -154 -93t-58 -220q0 -102 47 -153.5t117 -51.5z" />
    <glyph glyph-name="Acircumflex" unicode="&#xc2;" horiz-adv-x="1155" 
d="M792 400h-498l-196 -400h-155l669 1365h189l238 -1365h-176zM772 537l-105 627l-308 -627h413zM1035 1515l-145 -20l-159 137l-202 -137l-144 20l371 260z" />
    <glyph glyph-name="Ecircumflex" unicode="&#xca;" horiz-adv-x="1144" 
d="M86 0l228 1365h851l-23 -136h-684l-75 -448h586l-23 -135h-585l-84 -501h738l-24 -145h-905zM1087 1515l-145 -20l-159 137l-202 -137l-144 20l371 260z" />
    <glyph glyph-name="Aacute" unicode="&#xc1;" horiz-adv-x="1155" 
d="M792 400h-498l-196 -400h-155l669 1365h189l238 -1365h-176zM772 537l-105 627l-308 -627h413zM1029 1677l-401 -189l-43 81l382 228z" />
    <glyph glyph-name="Edieresis" unicode="&#xcb;" horiz-adv-x="1144" 
d="M86 0l228 1365h851l-23 -136h-684l-75 -448h586l-23 -135h-585l-84 -501h738l-24 -145h-905zM1034 1625q0 -43 -31.5 -73t-74.5 -30t-74.5 30t-31.5 72q0 43 31.5 72.5t73.5 29.5q44 0 75.5 -29.5t31.5 -71.5zM712 1624q0 -42 -31.5 -72t-73.5 -30t-72.5 30t-30.5 71
q0 43 30.5 72.5t69.5 29.5q48 0 78 -30t30 -71z" />
    <glyph glyph-name="Egrave" unicode="&#xc8;" horiz-adv-x="1144" 
d="M86 0l228 1365h851l-23 -136h-684l-75 -448h586l-23 -135h-585l-84 -501h738l-24 -145h-905zM503 1677l62 120l368 -228l-43 -81z" />
    <glyph glyph-name="Iacute" unicode="&#xcd;" horiz-adv-x="508" 
d="M481 1365l-228 -1365h-167l228 1365h167zM723 1677l-401 -189l-43 81l382 228z" />
    <glyph glyph-name="Icircumflex" unicode="&#xce;" horiz-adv-x="508" 
d="M481 1365l-228 -1365h-167l228 1365h167zM747 1515l-145 -20l-159 137l-202 -137l-144 20l371 260z" />
    <glyph glyph-name="Idieresis" unicode="&#xcf;" horiz-adv-x="508" 
d="M481 1365l-228 -1365h-167l228 1365h167zM722 1625q0 -43 -31.5 -73t-74.5 -30t-74.5 30t-31.5 72q0 43 31.5 72.5t73.5 29.5q44 0 75.5 -29.5t31.5 -71.5zM400 1624q0 -42 -31.5 -72t-73.5 -30t-72.5 30t-30.5 71q0 43 30.5 72.5t69.5 29.5q48 0 78 -30t30 -71z" />
    <glyph glyph-name="Igrave" unicode="&#xcc;" horiz-adv-x="508" 
d="M481 1365l-228 -1365h-167l228 1365h167zM126 1677l62 120l368 -228l-43 -81z" />
    <glyph glyph-name="Oacute" unicode="&#xd3;" horiz-adv-x="1315" 
d="M629 -27q-235 0 -376 168.5t-141 443.5q0 310 174 559t462 249q228 0 372 -158t144 -434q0 -327 -171 -577.5t-464 -250.5zM629 110q156 0 265.5 118.5t152.5 300t43 307.5q0 197 -98 308t-250 111q-218 0 -336.5 -218.5t-118.5 -486.5q0 -212 96 -326t246 -114z
M1132 1677l-401 -189l-43 81l382 228z" />
    <glyph glyph-name="Ocircumflex" unicode="&#xd4;" horiz-adv-x="1315" 
d="M629 -27q-235 0 -376 168.5t-141 443.5q0 310 174 559t462 249q228 0 372 -158t144 -434q0 -327 -171 -577.5t-464 -250.5zM629 110q156 0 265.5 118.5t152.5 300t43 307.5q0 197 -98 308t-250 111q-218 0 -336.5 -218.5t-118.5 -486.5q0 -212 96 -326t246 -114z
M1146 1515l-145 -20l-159 137l-202 -137l-144 20l371 260z" />
    <glyph glyph-name="Ograve" unicode="&#xd2;" horiz-adv-x="1315" 
d="M629 -27q-235 0 -376 168.5t-141 443.5q0 310 174 559t462 249q228 0 372 -158t144 -434q0 -327 -171 -577.5t-464 -250.5zM629 110q156 0 265.5 118.5t152.5 300t43 307.5q0 197 -98 308t-250 111q-218 0 -336.5 -218.5t-118.5 -486.5q0 -212 96 -326t246 -114z
M558 1677l62 120l368 -228l-43 -81z" />
    <glyph glyph-name="Uacute" unicode="&#xda;" horiz-adv-x="1259" 
d="M1254 1365l-139 -832q-38 -226 -93.5 -332t-166.5 -168.5t-268 -62.5q-189 0 -319.5 92t-130.5 293q0 60 32 255l127 755h167l-134 -791q-28 -165 -28 -211q0 -122 83 -188.5t207 -66.5q114 0 195 45t121 122t67 243l142 847h138zM1119 1677l-401 -189l-43 81l382 228z
" />
    <glyph glyph-name="Ucircumflex" unicode="&#xdb;" horiz-adv-x="1259" 
d="M1254 1365l-139 -832q-38 -226 -93.5 -332t-166.5 -168.5t-268 -62.5q-189 0 -319.5 92t-130.5 293q0 60 32 255l127 755h167l-134 -791q-28 -165 -28 -211q0 -122 83 -188.5t207 -66.5q114 0 195 45t121 122t67 243l142 847h138zM1134 1515l-145 -20l-159 137l-202 -137
l-144 20l371 260z" />
    <glyph glyph-name="Ugrave" unicode="&#xd9;" horiz-adv-x="1259" 
d="M1254 1365l-139 -832q-38 -226 -93.5 -332t-166.5 -168.5t-268 -62.5q-189 0 -319.5 92t-130.5 293q0 60 32 255l127 755h167l-134 -791q-28 -165 -28 -211q0 -122 83 -188.5t207 -66.5q114 0 195 45t121 122t67 243l142 847h138zM531 1677l62 120l368 -228l-43 -81z" />
    <glyph glyph-name="dotlessi" unicode="&#x131;" horiz-adv-x="470" 
d="M229 0h-156l170 1014h155z" />
    <glyph glyph-name="circumflex" unicode="&#x2c6;" horiz-adv-x="1024" 
d="M952 1194l-145 -20l-159 137l-202 -137l-144 20l371 260z" />
    <glyph glyph-name="tilde" unicode="&#x2dc;" horiz-adv-x="1024" 
d="M906 1380l76 -72q-96 -100 -200 -100q-48 0 -128 34q-86 38 -132 38q-81 0 -134 -66l-83 58q87 128 221 128q47 0 127 -34q88 -37 132 -37q67 0 121 51z" />
    <glyph glyph-name="macron" unicode="&#x2c9;" horiz-adv-x="1024" 
d="M944 1236h-614l18 109h615z" />
    <glyph glyph-name="breve" unicode="&#x2d8;" horiz-adv-x="1024" 
d="M377 1438h110q5 -143 155 -143q73 0 122 27t88 116h114q-76 -255 -329 -255q-137 0 -198 63.5t-62 191.5z" />
    <glyph glyph-name="dotaccent" unicode="&#x2d9;" horiz-adv-x="1024" 
d="M755 1307q0 -44 -32.5 -75t-76.5 -31q-45 0 -77 31t-32 75q0 43 32 73.5t76 30.5q46 0 78 -30.5t32 -73.5z" />
    <glyph glyph-name="ring" unicode="&#x2da;" horiz-adv-x="1024" 
d="M820 1326q0 -71 -50.5 -121.5t-121.5 -50.5t-123 51t-52 122q0 70 51.5 122t127.5 52q67 0 117.5 -51.5t50.5 -123.5zM737 1326q0 38 -25.5 65t-59.5 27q-43 0 -69.5 -27t-26.5 -63q0 -38 27 -65t65 -27q37 0 63 26.5t26 63.5z" />
    <glyph glyph-name="cedilla" unicode="&#xb8;" horiz-adv-x="1024" 
d="M406 0h74l-41 -98q23 1 37 1q55 0 103 -32t48 -92q0 -68 -58 -113t-158 -45q-98 0 -174 46l31 66q73 -37 138 -37q114 0 114 77q0 67 -119 67q-28 0 -67 -5z" />
    <glyph glyph-name="hungarumlaut" unicode="&#x2dd;" horiz-adv-x="1024" 
d="M826 1373l-319 -206l-51 78l303 231zM1140 1373l-319 -206l-51 78l303 231z" />
    <glyph glyph-name="ogonek" unicode="&#x2db;" horiz-adv-x="1024" 
d="M794 0q-148 -77 -148 -160q0 -81 103 -81q42 0 87 13l11 -66q-69 -32 -150 -32q-175 0 -175 129q0 128 175 197h97z" />
    <glyph glyph-name="caron" unicode="&#x2c7;" horiz-adv-x="1024" 
d="M335 1420l145 20l158 -136l203 136l144 -20l-371 -259z" />
    <glyph glyph-name="Lslash" unicode="&#x141;" horiz-adv-x="1042" 
d="M930 0h-844l93 558l-146 -100l26 157l147 100l109 650h166l-96 -574l281 194l-26 -157l-281 -195l-82 -488h677z" />
    <glyph glyph-name="lslash" unicode="&#x142;" horiz-adv-x="497" 
d="M469 1365l-85 -512l139 97l-24 -144l-139 -96l-119 -710h-156l105 625l-140 -102l24 144l140 101l100 597h155z" />
    <glyph glyph-name="Scaron" unicode="&#x160;" horiz-adv-x="1171" 
d="M1114 1080l-144 -55q-38 113 -132 180.5t-216 67.5q-149 0 -222.5 -71t-73.5 -168q0 -64 32.5 -109.5t85 -68t192.5 -57.5q184 -47 261 -84.5t132 -119.5t55 -196q0 -193 -141.5 -310.5t-376.5 -117.5q-441 0 -558 380l149 54q93 -296 409 -296q170 0 259.5 82t89.5 190
q0 66 -32.5 115.5t-83.5 73t-166 51.5q-176 42 -271.5 86t-150 123.5t-54.5 186.5q0 164 123.5 274.5t327.5 110.5q375 0 506 -322zM378 1741l145 20l158 -136l203 136l144 -20l-371 -259z" />
    <glyph glyph-name="scaron" unicode="&#x161;" horiz-adv-x="945" 
d="M857 796l-130 -55q-67 170 -266 170q-91 0 -146 -46.5t-55 -110.5q0 -65 42.5 -95.5t166.5 -58.5l63 -15q106 -24 164 -52.5t98 -91t40 -142.5q0 -135 -106.5 -230t-290.5 -95q-132 0 -247.5 51t-198.5 225l145 49q72 -200 306 -200q112 0 173.5 50t61.5 125
q0 59 -36.5 93.5t-162.5 64.5l-53 13q-117 28 -179.5 57.5t-104.5 89.5t-42 137q0 126 97.5 215.5t266.5 89.5q305 0 394 -238zM239 1420l145 20l158 -136l203 136l144 -20l-371 -259z" />
    <glyph glyph-name="Zcaron" unicode="&#x17d;" horiz-adv-x="1076" 
d="M1121 1365l-19 -113l-905 -1107h770l-24 -145h-980l24 145l887 1082h-684l23 138h908zM392 1741l145 20l158 -136l203 136l144 -20l-371 -259z" />
    <glyph glyph-name="zcaron" unicode="&#x17e;" horiz-adv-x="859" 
d="M733 0h-770l18 107l668 779h-519l22 128h728l-18 -103l-675 -784h567zM259 1420l145 20l158 -136l203 136l144 -20l-371 -259z" />
    <glyph glyph-name="brokenbar" unicode="&#xa6;" horiz-adv-x="1024" 
d="M467 1365h153v-682h-153v682zM467 314h153v-655h-153v655z" />
    <glyph glyph-name="Eth" unicode="&#xd0;" horiz-adv-x="1328" 
d="M304 1365h379q193 0 302.5 -58t194.5 -195t85 -346q0 -261 -105 -441t-232.5 -252.5t-337.5 -72.5h-505l106 658h-137l20 123h137zM377 781h327l-21 -123h-326l-83 -519l275 -2q144 0 227 30t153 100.5t119.5 205.5t49.5 295q0 208 -96 338.5t-340 130.5l-212 -2z" />
    <glyph glyph-name="eth" unicode="&#xf0;" horiz-adv-x="1046" 
d="M446 1174l141 74q-54 48 -148 90l57 90q126 -41 218 -116l171 84l51 -87l-148 -73q202 -239 202 -594q0 -302 -143.5 -486.5t-371.5 -184.5q-194 0 -300 136.5t-106 323.5q0 218 141.5 398t349.5 180q128 0 218 -85q-37 133 -115 249l-165 -85zM566 888
q-155 0 -242.5 -150t-87.5 -334q0 -153 66.5 -229.5t181.5 -76.5q165 0 249 160.5t84 344.5q0 132 -70.5 208.5t-180.5 76.5z" />
    <glyph glyph-name="Yacute" unicode="&#xdd;" horiz-adv-x="1049" 
d="M532 0h-172l95 572l-348 793h183l284 -646l472 646h168l-587 -793zM1005 1677l-401 -189l-43 81l382 228z" />
    <glyph glyph-name="yacute" unicode="&#xfd;" horiz-adv-x="870" 
d="M941 1014l-556 -1069q-103 -199 -193 -250t-190 -51q-42 0 -100 7l23 136q51 -10 86 -10q161 0 248 180l35 71l-212 986h160l164 -771l399 771h136zM849 1356l-401 -189l-43 81l382 228z" />
    <glyph glyph-name="Thorn" unicode="&#xde;" horiz-adv-x="1154" 
d="M312 354l-59 -354h-167l228 1365h167l-33 -198h208q166 0 260.5 -30t159.5 -130t65 -217q0 -157 -114 -296.5t-440 -139.5h-275zM335 490h187q174 0 252 18t135.5 94.5t57.5 183.5q0 82 -35.5 142t-90 82.5t-189.5 22.5l-227 -2z" />
    <glyph glyph-name="thorn" unicode="&#xfe;" horiz-adv-x="1098" 
d="M170 -354h-157l288 1719h157l-90 -535q146 202 327 202q140 0 235.5 -114t95.5 -318q0 -239 -133 -433t-337 -194q-195 0 -302 175zM532 100q166 0 245 167t79 360q0 138 -63.5 207.5t-152.5 69.5q-128 0 -235 -160.5t-107 -362.5q0 -137 68 -209t166 -72z" />
    <glyph glyph-name="minus" unicode="&#x2212;" horiz-adv-x="1201" 
d="M152 753h956v-138h-956v138z" />
    <glyph glyph-name="multiply" unicode="&#xd7;" horiz-adv-x="1201" 
d="M939 277l-308 309l-309 -309l-98 98l309 309l-309 309l98 98l309 -309l308 309l98 -98l-308 -309l308 -309z" />
    <glyph glyph-name="onesuperior" unicode="&#xb9;" horiz-adv-x="792" 
d="M734 546h-565l15 92h220l99 590q-93 -81 -248 -85l16 94q211 26 289 147h82l-125 -746h233z" />
    <glyph glyph-name="twosuperior" unicode="&#xb2;" horiz-adv-x="792" 
d="M711 546h-614l18 110q394 236 476 321.5t82 158.5q0 70 -53 115t-129 45q-54 0 -110.5 -32.5t-103.5 -155.5l-97 34q87 249 316 249q124 0 210.5 -75t86.5 -183q0 -115 -102.5 -210.5t-432.5 -276.5h470z" />
    <glyph glyph-name="threesuperior" unicode="&#xb3;" horiz-adv-x="792" 
d="M105 738l97 36q67 -155 227 -155q84 0 140 46t56 115q0 55 -35 93t-82 46t-174 8l16 94q51 -1 85 -1q228 0 228 141q0 60 -48.5 98t-116.5 38q-129 0 -194 -131l-90 47q98 172 289 172q123 0 199.5 -65.5t76.5 -156.5q0 -142 -172 -193q60 -20 98 -74.5t38 -118.5
q0 -101 -87 -176t-227 -75q-109 0 -199 55.5t-125 156.5z" />
    <glyph glyph-name="onehalf" unicode="&#xbd;" horiz-adv-x="1802" 
d="M695 546h-565l15 92h220l99 590q-93 -81 -248 -85l16 94q211 26 289 147h82l-125 -746h233zM468 0h-129l1052 1365h130zM1669 0h-615l19 110q388 231 472.5 318t84.5 161q0 71 -52.5 116t-128.5 45q-55 0 -111.5 -33t-102.5 -156l-97 35q87 248 316 248q127 0 212 -75.5
t85 -182.5q0 -124 -119 -224t-417 -262h470z" />
    <glyph glyph-name="onequarter" unicode="&#xbc;" horiz-adv-x="1802" 
d="M695 546h-565l15 92h220l99 590q-93 -81 -248 -85l16 94q211 26 289 147h82l-125 -746h233zM468 0h-129l1052 1365h130zM1553 0h-114l33 195h-405l14 90l479 557h134l-93 -554h139l-15 -93h-140zM1488 288l71 425l-366 -425h295z" />
    <glyph glyph-name="threequarters" unicode="&#xbe;" horiz-adv-x="1802" 
d="M66 738l97 36q67 -155 227 -155q84 0 140 46t56 115q0 55 -35 93t-82 46t-174 8l16 94q51 -1 85 -1q228 0 228 141q0 60 -48.5 98t-116.5 38q-129 0 -194 -131l-90 47q98 172 289 172q123 0 199.5 -65.5t76.5 -156.5q0 -142 -172 -193q60 -20 98 -74.5t38 -118.5
q0 -101 -87 -176t-227 -75q-109 0 -199 55.5t-125 156.5zM510 0h-129l1051 1365h131zM1554 0h-114l33 195h-406l15 90l479 557h134l-93 -554h139l-15 -93h-140zM1488 288l72 425l-366 -425h294z" />
    <glyph glyph-name="franc" unicode="&#x20a3;" horiz-adv-x="1039" 
d="M320 406h317l-20 -123h-317l-48 -283h-166l47 283h-140l20 123h140l161 959h834l-23 -138h-668l-75 -450h576l-22 -135h-576z" />
    <glyph glyph-name="Gbreve" unicode="&#x11e;" horiz-adv-x="1333" 
d="M702 683h518l-117 -699h-92l-21 166q-118 -184 -364 -184q-226 0 -370 171t-144 444q0 319 175 568.5t463 249.5q371 0 503 -386l-148 -52q-93 306 -356 306q-215 0 -339 -212.5t-124 -490.5q0 -223 102 -343.5t256 -120.5q149 0 254 111t138 338h-356zM544 1759h110
q5 -143 155 -143q73 0 122 27t88 116h114q-76 -255 -329 -255q-137 0 -198 63.5t-62 191.5z" />
    <glyph glyph-name="gbreve" unicode="&#x11f;" horiz-adv-x="1031" 
d="M1058 1043q-57 3 -82 3q-139 0 -174 -129q133 -103 133 -250q0 -152 -110.5 -260.5t-289.5 -108.5q-100 0 -196 42q-130 -57 -130 -135q0 -41 39 -54t179 -15q212 -3 301 -18.5t146.5 -77t57.5 -153.5q0 -145 -116.5 -228t-361.5 -83q-504 0 -504 242q0 152 187 220
q-79 44 -79 130q0 143 209 225q-113 84 -113 235q0 152 113 255t292 103q69 0 162 -27q43 136 111 180t164 44q37 0 84 -9zM528 411q111 0 180 67t69 180q0 95 -63.5 153t-161.5 58q-106 0 -173.5 -68t-67.5 -173q0 -95 57.5 -156t159.5 -61zM234 -6q-131 -39 -131 -140
q0 -84 108 -123t271 -39q300 0 300 164q0 47 -41.5 81.5t-233.5 36.5q-171 2 -273 20zM377 1438h110q5 -143 155 -143q73 0 122 27t88 116h114q-76 -255 -329 -255q-137 0 -198 63.5t-62 191.5z" />
    <glyph glyph-name="Idotaccent" unicode="&#x130;" horiz-adv-x="508" 
d="M481 1365l-228 -1365h-167l228 1365h167zM543 1628q0 -44 -32.5 -75t-76.5 -31q-45 0 -77 31t-32 75q0 43 32 73.5t76 30.5q46 0 78 -30.5t32 -73.5z" />
    <glyph glyph-name="Scedilla" unicode="&#x15e;" horiz-adv-x="1171" 
d="M547 -29l-32 -78q24 2 39 2q60 0 112 -35t52 -99q0 -75 -63 -123.5t-172 -48.5q-105 0 -188 50l34 72q79 -40 149 -40q124 0 124 83q0 72 -128 72q-30 0 -74 -5l68 156q-359 47 -460 374l149 54q93 -296 409 -296q170 0 259.5 82t89.5 190q0 66 -32.5 115.5t-83.5 73
t-166 51.5q-176 42 -271.5 86t-150 123.5t-54.5 186.5q0 164 123.5 274.5t327.5 110.5q375 0 506 -322l-144 -55q-38 113 -132 180.5t-216 67.5q-145 0 -220.5 -69t-75.5 -170q0 -64 32.5 -109.5t85 -68t192.5 -57.5q184 -47 261 -84.5t132 -119.5t55 -196q0 -192 -141 -311
t-396 -117z" />
    <glyph glyph-name="scedilla" unicode="&#x15f;" horiz-adv-x="945" 
d="M421 -26l-30 -72q22 1 37 1q55 0 103 -32t48 -92q0 -68 -58 -113t-158 -45q-98 0 -174 46l31 66q73 -37 138 -37q114 0 114 77q0 67 -119 67q-28 0 -68 -5l64 145q-269 35 -358 270l145 49q72 -200 306 -200q112 0 173.5 50t61.5 125q0 59 -36.5 93.5t-162.5 64.5l-53 13
q-117 28 -179.5 57.5t-104.5 89.5t-42 137q0 126 97.5 215.5t266.5 89.5q305 0 394 -238l-130 -55q-67 170 -266 170q-91 0 -146 -46.5t-55 -110.5q0 -65 42.5 -95.5t166.5 -58.5l63 -15q106 -24 164 -52.5t98 -91t40 -142.5q0 -139 -109.5 -233t-303.5 -92z" />
    <glyph glyph-name="Cacute" unicode="&#x106;" horiz-adv-x="1179" 
d="M1207 945l-149 -37q-23 199 -112 276.5t-207 77.5q-137 0 -235.5 -94t-158.5 -280t-60 -348q0 -204 89.5 -314.5t236.5 -110.5q233 0 368 321l139 -52q-153 -407 -511 -407q-239 0 -368.5 168t-129.5 428q0 311 174.5 568.5t450.5 257.5q178 0 311 -108t162 -346z
M1097 1677l-401 -189l-43 81l382 228z" />
    <glyph glyph-name="cacute" unicode="&#x107;" horiz-adv-x="971" 
d="M940 690l-153 -33q-15 122 -79.5 187t-151.5 65q-159 0 -237.5 -161t-78.5 -349q0 -145 65.5 -219.5t165.5 -74.5q181 0 280 244l128 -48q-50 -155 -164 -244.5t-260 -89.5q-187 0 -284.5 147.5t-97.5 326.5q0 227 134.5 416t352.5 189q152 0 259 -99.5t121 -256.5z
M924 1356l-401 -189l-43 81l382 228z" />
    <glyph glyph-name="Ccaron" unicode="&#x10c;" horiz-adv-x="1179" 
d="M1207 945l-149 -37q-23 199 -112 276.5t-207 77.5q-137 0 -235.5 -94t-158.5 -280t-60 -348q0 -204 89.5 -314.5t236.5 -110.5q233 0 368 321l139 -52q-153 -407 -511 -407q-239 0 -368.5 168t-129.5 428q0 311 174.5 568.5t450.5 257.5q178 0 311 -108t162 -346z
M501 1741l145 20l158 -136l203 136l144 -20l-371 -259z" />
    <glyph glyph-name="ccaron" unicode="&#x10d;" horiz-adv-x="971" 
d="M940 690l-153 -33q-15 122 -79.5 187t-151.5 65q-159 0 -237.5 -161t-78.5 -349q0 -145 65.5 -219.5t165.5 -74.5q181 0 280 244l128 -48q-50 -155 -164 -244.5t-260 -89.5q-187 0 -284.5 147.5t-97.5 326.5q0 227 134.5 416t352.5 189q152 0 259 -99.5t121 -256.5z
M328 1420l145 20l158 -136l203 136l144 -20l-371 -259z" />
    <glyph glyph-name="dcroat" unicode="&#x111;" horiz-adv-x="1101" 
d="M1050 1136l-190 -1136h-143l39 200q-137 -227 -349 -227q-162 0 -249 121t-87 306q0 231 132.5 434.5t350.5 203.5q208 0 294 -190l49 288h-280l18 109h280l20 120h153l-20 -120h130l-19 -109h-129zM449 97q151 0 253.5 164t102.5 377q0 129 -73.5 203t-169.5 74
q-152 0 -239.5 -169.5t-87.5 -368.5q0 -135 59 -207.5t155 -72.5z" />
    <glyph glyph-name="uni00AD" unicode="&#xad;" horiz-adv-x="512" 
d="M475 452h-455l19 116h455z" />
    <glyph glyph-name="uni00AF" unicode="&#xaf;" horiz-adv-x="1024" 
d="M31 1768h1024v-137h-1024v137z" />
    <glyph glyph-name="uni00B7" unicode="&#xb7;" horiz-adv-x="264" 
d="M225 391h-225l38 229h226z" />
    <glyph glyph-name="Amacron" unicode="&#x100;" horiz-adv-x="1155" 
d="M792 400h-498l-196 -400h-155l669 1365h189l238 -1365h-176zM772 537l-105 627l-308 -627h413zM1021 1550h-614l18 109h615z" />
    <glyph glyph-name="amacron" unicode="&#x101;" horiz-adv-x="1096" 
d="M877 0h-159q-1 31 -1 51q0 78 18 147q-153 -227 -380 -227q-142 0 -232.5 87t-90.5 218q0 147 130 251t485 104q32 0 153 -6q11 65 11 106q0 192 -233 192q-205 0 -293 -171l-148 63q120 230 431 230q172 0 288 -75.5t116 -213.5q0 -56 -77 -526q-21 -127 -21 -187
q0 -9 3 -43zM781 509q-72 6 -138 6q-438 0 -438 -246q0 -76 47.5 -122t132.5 -46q134 0 249.5 115t146.5 293zM964 1236h-614l18 109h615z" />
    <glyph glyph-name="Abreve" unicode="&#x102;" horiz-adv-x="1155" 
d="M792 400h-498l-196 -400h-155l669 1365h189l238 -1365h-176zM772 537l-105 627l-308 -627h413zM456 1759h110q5 -143 155 -143q73 0 122 27t88 116h114q-76 -255 -329 -255q-137 0 -198 63.5t-62 191.5z" />
    <glyph glyph-name="abreve" unicode="&#x103;" horiz-adv-x="1096" 
d="M877 0h-159q-1 31 -1 51q0 78 18 147q-153 -227 -380 -227q-142 0 -232.5 87t-90.5 218q0 147 130 251t485 104q32 0 153 -6q11 65 11 106q0 192 -233 192q-205 0 -293 -171l-148 63q120 230 431 230q172 0 288 -75.5t116 -213.5q0 -56 -77 -526q-21 -127 -21 -187
q0 -9 3 -43zM781 509q-72 6 -138 6q-438 0 -438 -246q0 -76 47.5 -122t132.5 -46q134 0 249.5 115t146.5 293zM397 1438h110q5 -143 155 -143q73 0 122 27t88 116h114q-76 -255 -329 -255q-137 0 -198 63.5t-62 191.5z" />
    <glyph glyph-name="Aogonek" unicode="&#x104;" horiz-adv-x="1155" 
d="M1039 0q-152 -82 -152 -169q0 -85 105 -85q45 0 89 14l11 -69q-69 -34 -154 -34q-177 0 -177 136q0 135 178 207h-76l-71 400h-498l-196 -400h-155l669 1365h189zM772 537l-105 627l-308 -627h413z" />
    <glyph glyph-name="aogonek" unicode="&#x105;" horiz-adv-x="1096" 
d="M718 0q-1 31 -1 51q0 78 18 147q-153 -227 -380 -227q-142 0 -232.5 87t-90.5 218q0 147 130 251t485 104q32 0 153 -6q11 65 11 106q0 192 -233 192q-205 0 -293 -171l-148 63q120 230 431 230q188 0 296 -81t108 -208q0 -55 -77 -526q-21 -127 -21 -188q0 -9 3 -42
q-149 -77 -149 -161q0 -80 103 -80q43 0 87 13l11 -66q-68 -32 -151 -32q-174 0 -174 129q0 128 175 197h-61zM781 509q-72 6 -138 6q-438 0 -438 -246q0 -76 47.5 -122t132.5 -46q134 0 249.5 115t146.5 293z" />
    <glyph glyph-name="Ccircumflex" unicode="&#x108;" horiz-adv-x="1179" 
d="M1207 945l-149 -37q-23 199 -112 276.5t-207 77.5q-137 0 -235.5 -94t-158.5 -280t-60 -348q0 -204 89.5 -314.5t236.5 -110.5q233 0 368 321l139 -52q-153 -407 -511 -407q-239 0 -368.5 168t-129.5 428q0 311 174.5 568.5t450.5 257.5q178 0 311 -108t162 -346z
M1118 1515l-145 -20l-159 137l-202 -137l-144 20l371 260z" />
    <glyph glyph-name="ccircumflex" unicode="&#x109;" horiz-adv-x="971" 
d="M940 690l-153 -33q-15 122 -79.5 187t-151.5 65q-159 0 -237.5 -161t-78.5 -349q0 -145 65.5 -219.5t165.5 -74.5q181 0 280 244l128 -48q-50 -155 -164 -244.5t-260 -89.5q-187 0 -284.5 147.5t-97.5 326.5q0 227 134.5 416t352.5 189q152 0 259 -99.5t121 -256.5z
M906 1194l-145 -20l-159 137l-202 -137l-144 20l371 260z" />
    <glyph glyph-name="Cdotaccent" unicode="&#x10a;" horiz-adv-x="1179" 
d="M1207 945l-149 -37q-23 199 -112 276.5t-207 77.5q-137 0 -235.5 -94t-158.5 -280t-60 -348q0 -204 89.5 -314.5t236.5 -110.5q233 0 368 321l139 -52q-153 -407 -511 -407q-239 0 -368.5 168t-129.5 428q0 311 174.5 568.5t450.5 257.5q178 0 311 -108t162 -346z
M923 1628q0 -44 -32.5 -75t-76.5 -31q-45 0 -77 31t-32 75q0 43 32 73.5t76 30.5q46 0 78 -30.5t32 -73.5z" />
    <glyph glyph-name="cdotaccent" unicode="&#x10b;" horiz-adv-x="971" 
d="M940 690l-153 -33q-15 122 -79.5 187t-151.5 65q-159 0 -237.5 -161t-78.5 -349q0 -145 65.5 -219.5t165.5 -74.5q181 0 280 244l128 -48q-50 -155 -164 -244.5t-260 -89.5q-187 0 -284.5 147.5t-97.5 326.5q0 227 134.5 416t352.5 189q152 0 259 -99.5t121 -256.5z
M748 1307q0 -44 -32.5 -75t-76.5 -31q-45 0 -77 31t-32 75q0 43 32 73.5t76 30.5q46 0 78 -30.5t32 -73.5z" />
    <glyph glyph-name="Dcaron" unicode="&#x10e;" horiz-adv-x="1328" 
d="M86 0l228 1365h379q202 0 315.5 -65.5t188 -201.5t74.5 -332q0 -262 -109 -443.5t-236.5 -252t-335.5 -70.5h-504zM276 139l274 -2q145 0 230 31t155.5 103t119.5 208.5t49 299.5q0 147 -49.5 254.5t-140.5 155.5t-242 48l-213 -2zM453 1741l145 20l158 -136l203 136
l144 -20l-371 -259z" />
    <glyph glyph-name="dcaron" unicode="&#x10f;" horiz-adv-x="1260" 
d="M860 0h-143l39 200q-137 -227 -349 -227q-162 0 -249 121t-87 306q0 231 132.5 434.5t350.5 203.5q208 0 294 -190l87 517h153zM449 97q151 0 253.5 164t102.5 377q0 129 -73.5 203t-169.5 74q-152 0 -239.5 -169.5t-87.5 -368.5q0 -135 59 -207.5t155 -72.5zM1252 1365
h159l-207 -355h-64z" />
    <glyph glyph-name="Dcroat" unicode="&#x110;" horiz-adv-x="1328" 
d="M304 1365h379q193 0 302.5 -58t194.5 -195t85 -346q0 -261 -105 -441t-232.5 -252.5t-337.5 -72.5h-505l106 658h-137l20 123h137zM377 781h327l-21 -123h-326l-83 -519l275 -2q144 0 227 30t153 100.5t119.5 205.5t49.5 295q0 208 -96 338.5t-340 130.5l-212 -2z" />
    <glyph glyph-name="Emacron" unicode="&#x112;" horiz-adv-x="1144" 
d="M86 0l228 1365h851l-23 -136h-684l-75 -448h586l-23 -135h-585l-84 -501h738l-24 -145h-905zM1064 1550h-614l18 109h615z" />
    <glyph glyph-name="emacron" unicode="&#x113;" horiz-adv-x="1065" 
d="M938 237q-156 -266 -438 -266q-191 0 -311.5 125t-120.5 338q0 262 150 437t372 175q109 0 203.5 -47t147 -147t52.5 -243q0 -51 -9 -116h-747q-6 -48 -6 -79q0 -139 73 -225.5t198 -86.5q86 0 155.5 38.5t149.5 158.5zM257 608h576q2 32 2 48q0 123 -70 196.5t-182 73.5
q-127 0 -215.5 -94.5t-110.5 -223.5zM962 1236h-614l18 109h615z" />
    <glyph glyph-name="Ebreve" unicode="&#x114;" horiz-adv-x="1144" 
d="M86 0l228 1365h851l-23 -136h-684l-75 -448h586l-23 -135h-585l-84 -501h738l-24 -145h-905zM493 1759h110q5 -143 155 -143q73 0 122 27t88 116h114q-76 -255 -329 -255q-137 0 -198 63.5t-62 191.5z" />
    <glyph glyph-name="ebreve" unicode="&#x115;" horiz-adv-x="1065" 
d="M938 237q-156 -266 -438 -266q-191 0 -311.5 125t-120.5 338q0 262 150 437t372 175q109 0 203.5 -47t147 -147t52.5 -243q0 -51 -9 -116h-747q-6 -48 -6 -79q0 -139 73 -225.5t198 -86.5q86 0 155.5 38.5t149.5 158.5zM257 608h576q2 32 2 48q0 123 -70 196.5t-182 73.5
q-127 0 -215.5 -94.5t-110.5 -223.5zM384 1438h110q5 -143 155 -143q73 0 122 27t88 116h114q-76 -255 -329 -255q-137 0 -198 63.5t-62 191.5z" />
    <glyph glyph-name="Edotaccent" unicode="&#x116;" horiz-adv-x="1144" 
d="M86 0l228 1365h851l-23 -136h-684l-75 -448h586l-23 -135h-585l-84 -501h738l-24 -145h-905zM873 1628q0 -44 -32.5 -75t-76.5 -31q-45 0 -77 31t-32 75q0 43 32 73.5t76 30.5q46 0 78 -30.5t32 -73.5z" />
    <glyph glyph-name="edotaccent" unicode="&#x117;" horiz-adv-x="1065" 
d="M938 237q-156 -266 -438 -266q-191 0 -311.5 125t-120.5 338q0 262 150 437t372 175q109 0 203.5 -47t147 -147t52.5 -243q0 -51 -9 -116h-747q-6 -48 -6 -79q0 -139 73 -225.5t198 -86.5q86 0 155.5 38.5t149.5 158.5zM257 608h576q2 32 2 48q0 123 -70 196.5t-182 73.5
q-127 0 -215.5 -94.5t-110.5 -223.5zM769 1307q0 -44 -32.5 -75t-76.5 -31q-45 0 -77 31t-32 75q0 43 32 73.5t76 30.5q46 0 78 -30.5t32 -73.5z" />
    <glyph glyph-name="Eogonek" unicode="&#x118;" horiz-adv-x="1144" 
d="M991 0q-152 -82 -152 -169q0 -85 106 -85q44 0 88 14l12 -69q-70 -34 -155 -34q-177 0 -177 136q0 135 179 207h-806l228 1365h851l-23 -136h-684l-75 -448h586l-23 -135h-585l-84 -501h738z" />
    <glyph glyph-name="eogonek" unicode="&#x119;" horiz-adv-x="1065" 
d="M790 -221l11 -66q-68 -32 -151 -32q-174 0 -174 129q0 101 113 168q-49 -7 -91 -7q-183 0 -306.5 122t-123.5 341q0 262 150 437t372 175q180 0 291.5 -111.5t111.5 -325.5q0 -51 -9 -116h-747q-6 -48 -6 -79q0 -139 73 -225.5t198 -86.5q86 0 155.5 38.5t149.5 158.5
l131 -62q-47 -76 -80 -111.5t-135 -114.5q-69 -53 -96 -88.5t-27 -76.5q0 -80 103 -80q42 0 87 13zM257 608h576q2 32 2 48q0 123 -70 196.5t-182 73.5q-127 0 -215.5 -94.5t-110.5 -223.5z" />
    <glyph glyph-name="Ecaron" unicode="&#x11a;" horiz-adv-x="1144" 
d="M86 0l228 1365h851l-23 -136h-684l-75 -448h586l-23 -135h-585l-84 -501h738l-24 -145h-905zM460 1741l145 20l158 -136l203 136l144 -20l-371 -259z" />
    <glyph glyph-name="ecaron" unicode="&#x11b;" horiz-adv-x="1065" 
d="M938 237q-156 -266 -438 -266q-191 0 -311.5 125t-120.5 338q0 262 150 437t372 175q109 0 203.5 -47t147 -147t52.5 -243q0 -51 -9 -116h-747q-6 -48 -6 -79q0 -139 73 -225.5t198 -86.5q86 0 155.5 38.5t149.5 158.5zM257 608h576q2 32 2 48q0 123 -70 196.5t-182 73.5
q-127 0 -215.5 -94.5t-110.5 -223.5zM348 1420l145 20l158 -136l203 136l144 -20l-371 -259z" />
    <glyph glyph-name="Gcircumflex" unicode="&#x11c;" horiz-adv-x="1333" 
d="M702 683h518l-117 -699h-92l-21 166q-118 -184 -364 -184q-226 0 -370 171t-144 444q0 319 175 568.5t463 249.5q371 0 503 -386l-148 -52q-93 306 -356 306q-215 0 -339 -212.5t-124 -490.5q0 -223 102 -343.5t256 -120.5q149 0 254 111t138 338h-356zM1128 1515
l-145 -20l-159 137l-202 -137l-144 20l371 260z" />
    <glyph glyph-name="gcircumflex" unicode="&#x11d;" horiz-adv-x="1031" 
d="M1058 1043q-57 3 -82 3q-139 0 -174 -129q133 -103 133 -250q0 -152 -110.5 -260.5t-289.5 -108.5q-100 0 -196 42q-130 -57 -130 -135q0 -41 39 -54t179 -15q212 -3 301 -18.5t146.5 -77t57.5 -153.5q0 -145 -116.5 -228t-361.5 -83q-504 0 -504 242q0 152 187 220
q-79 44 -79 130q0 143 209 225q-113 84 -113 235q0 152 113 255t292 103q69 0 162 -27q43 136 111 180t164 44q37 0 84 -9zM528 411q111 0 180 67t69 180q0 95 -63.5 153t-161.5 58q-106 0 -173.5 -68t-67.5 -173q0 -95 57.5 -156t159.5 -61zM234 -6q-131 -39 -131 -140
q0 -84 108 -123t271 -39q300 0 300 164q0 47 -41.5 81.5t-233.5 36.5q-171 2 -273 20zM1028 1194l-145 -20l-159 137l-202 -137l-144 20l371 260z" />
    <glyph glyph-name="Gdotaccent" unicode="&#x120;" horiz-adv-x="1333" 
d="M702 683h518l-117 -699h-92l-21 166q-118 -184 -364 -184q-226 0 -370 171t-144 444q0 319 175 568.5t463 249.5q371 0 503 -386l-148 -52q-93 306 -356 306q-215 0 -339 -212.5t-124 -490.5q0 -223 102 -343.5t256 -120.5q149 0 254 111t138 338h-356zM926 1628
q0 -44 -32.5 -75t-76.5 -31q-45 0 -77 31t-32 75q0 43 32 73.5t76 30.5q46 0 78 -30.5t32 -73.5z" />
    <glyph glyph-name="gdotaccent" unicode="&#x121;" horiz-adv-x="1031" 
d="M1058 1043q-57 3 -82 3q-139 0 -174 -129q133 -103 133 -250q0 -152 -110.5 -260.5t-289.5 -108.5q-100 0 -196 42q-130 -57 -130 -135q0 -41 39 -54t179 -15q212 -3 301 -18.5t146.5 -77t57.5 -153.5q0 -145 -116.5 -228t-361.5 -83q-504 0 -504 242q0 152 187 220
q-79 44 -79 130q0 143 209 225q-113 84 -113 235q0 152 113 255t292 103q69 0 162 -27q43 136 111 180t164 44q37 0 84 -9zM528 411q111 0 180 67t69 180q0 95 -63.5 153t-161.5 58q-106 0 -173.5 -68t-67.5 -173q0 -95 57.5 -156t159.5 -61zM234 -6q-131 -39 -131 -140
q0 -84 108 -123t271 -39q300 0 300 164q0 47 -41.5 81.5t-233.5 36.5q-171 2 -273 20zM679 1307q0 -44 -32.5 -75t-76.5 -31q-45 0 -77 31t-32 75q0 43 32 73.5t76 30.5q46 0 78 -30.5t32 -73.5z" />
    <glyph glyph-name="Gcommaaccent" unicode="&#x122;" horiz-adv-x="1333" 
d="M702 683h518l-117 -699h-92l-21 166q-118 -184 -364 -184q-226 0 -370 171t-144 444q0 319 175 568.5t463 249.5q371 0 503 -386l-148 -52q-93 306 -356 306q-215 0 -339 -212.5t-124 -490.5q0 -223 102 -343.5t256 -120.5q149 0 254 111t138 338h-356zM529 -115h159
l-207 -355h-64z" />
    <glyph glyph-name="gcommaaccent" unicode="&#x123;" horiz-adv-x="1031" 
d="M1058 1078q-57 3 -82 3q-139 0 -174 -129q133 -103 133 -250q0 -152 -110.5 -260.5t-289.5 -108.5q-100 0 -196 42q-130 -57 -130 -135q0 -41 39 -54t179 -15q212 -3 301 -18.5t146.5 -77t57.5 -153.5q0 -145 -116.5 -228t-361.5 -83q-504 0 -504 242q0 152 187 220
q-79 44 -79 130q0 143 209 225q-113 84 -113 235q0 152 113 255t292 103q69 0 162 -27q43 136 111 180t164 44q37 0 84 -9zM528 446q111 0 180 67t69 180q0 95 -63.5 153t-161.5 58q-106 0 -173.5 -68t-67.5 -173q0 -95 57.5 -156t159.5 -61zM234 29q-131 -39 -131 -140
q0 -84 108 -123t271 -39q300 0 300 164q0 47 -41.5 81.5t-233.5 36.5q-171 2 -273 20zM674 1200h-159l207 355h64z" />
    <glyph glyph-name="Hcircumflex" unicode="&#x124;" horiz-adv-x="1343" 
d="M1030 646h-669l-108 -646h-167l228 1365h167l-96 -574h669l96 574h167l-229 -1365h-166zM1167 1515l-145 -20l-159 137l-202 -137l-144 20l371 260z" />
    <glyph glyph-name="hcircumflex" unicode="&#x125;" horiz-adv-x="1115" 
d="M456 1365l-90 -540q137 217 338 217q123 0 206 -75t83 -205q0 -49 -15 -139l-105 -623h-154l104 623q12 70 12 124q0 82 -48 127t-121 45q-115 0 -221 -126t-148 -377l-69 -416h-156l228 1365h156zM729 1515l-145 -20l-159 137l-202 -137l-144 20l371 260z" />
    <glyph glyph-name="Hbar" unicode="&#x126;" horiz-adv-x="1344" 
d="M129 1034l21 123h130l34 208h167l-35 -208h669l35 208h167l-35 -208h130l-21 -123h-130l-173 -1034h-166l108 646h-669l-108 -646h-167l173 1034h-130zM426 1034l-41 -243h669l41 243h-669z" />
    <glyph glyph-name="hbar" unicode="&#x127;" horiz-adv-x="1115" 
d="M716 1245l-18 -109h-280l-52 -311q137 217 338 217q128 0 208.5 -77.5t80.5 -202.5q0 -49 -15 -139l-105 -623h-154l104 623q12 70 12 124q0 82 -48 127t-121 45q-115 0 -221 -126t-148 -377l-69 -416h-156l190 1136h-130l19 109h129l20 120h156l-20 -120h280z" />
    <glyph glyph-name="Itilde" unicode="&#x128;" horiz-adv-x="508" 
d="M481 1365l-228 -1365h-167l228 1365h167zM689 1701l76 -72q-96 -100 -200 -100q-48 0 -128 34q-86 38 -132 38q-81 0 -134 -66l-83 58q87 128 221 128q47 0 127 -34q88 -37 132 -37q67 0 121 51z" />
    <glyph glyph-name="itilde" unicode="&#x129;" horiz-adv-x="470" 
d="M229 0h-156l170 1014h155zM629 1380l76 -72q-96 -100 -200 -100q-48 0 -128 34q-86 38 -132 38q-81 0 -134 -66l-83 58q87 128 221 128q47 0 127 -34q88 -37 132 -37q67 0 121 51z" />
    <glyph glyph-name="Imacron" unicode="&#x12a;" horiz-adv-x="508" 
d="M481 1365l-228 -1365h-167l228 1365h167zM730 1550h-614l18 109h615z" />
    <glyph glyph-name="imacron" unicode="&#x12b;" horiz-adv-x="470" 
d="M230 0h-156l170 1014h155zM660 1236h-614l18 109h615z" />
    <glyph glyph-name="Ibreve" unicode="&#x12c;" horiz-adv-x="508" 
d="M481 1365l-228 -1365h-167l228 1365h167zM166 1759h110q5 -143 155 -143q73 0 122 27t88 116h114q-76 -255 -329 -255q-137 0 -198 63.5t-62 191.5z" />
    <glyph glyph-name="ibreve" unicode="&#x12d;" horiz-adv-x="470" 
d="M229 0h-156l170 1014h155zM98 1437h110q5 -143 155 -143q73 0 122 27t88 116h114q-76 -255 -329 -255q-137 0 -198 63.5t-62 191.5z" />
    <glyph glyph-name="Iogonek" unicode="&#x12e;" horiz-adv-x="508" 
d="M257 0q-125 -76 -125 -169q0 -85 87 -85q29 0 79 14l12 -69q-72 -35 -141 -35q-163 0 -163 136q0 137 158 208h-74l228 1365h167z" />
    <glyph glyph-name="iogonek" unicode="&#x12f;" horiz-adv-x="470" 
d="M457 1180h-204l31 185h204zM76 0l170 1014h157l-170 -1014q-114 -70 -114 -162q0 -79 78 -79q31 0 77 13l12 -66q-72 -33 -139 -33q-151 0 -151 129t146 198h-66z" />
    <glyph glyph-name="IJ" unicode="&#x132;" horiz-adv-x="1256" 
d="M481 1365l-228 -1365h-167l228 1365h167zM1243 1365l-141 -843q-37 -218 -80 -314t-146.5 -162.5t-254.5 -66.5q-100 0 -205 21l24 140q70 -16 153 -16q107 0 175 38.5t98 102t55 215.5l148 885h174z" />
    <glyph glyph-name="ij" unicode="&#x133;" horiz-adv-x="932" 
d="M453 1180h-203l31 185h203zM915 1180h-203l31 185h203zM230 0h-157l170 1014h157zM860 1014l-159 -949q-27 -161 -55 -236t-106 -127.5t-186 -52.5q-55 0 -138 12l20 121q70 -7 107 -7q71 0 111.5 30.5t54 74t37.5 185.5l159 949h155z" />
    <glyph glyph-name="Jcircumflex" unicode="&#x134;" horiz-adv-x="755" 
d="M741 1365l-141 -843q-36 -218 -79 -314t-146.5 -162.5t-254.5 -66.5q-100 0 -205 21l24 140q69 -16 152 -16q107 0 175.5 38.5t98 102t55.5 215.5l148 885h173zM990 1515l-145 -20l-159 137l-202 -137l-144 20l371 260z" />
    <glyph glyph-name="jcircumflex" unicode="&#x135;" horiz-adv-x="469" 
d="M651 1194l-144 -20l-159 137l-202 -137l-144 20l371 260zM397 1014l-159 -949q-27 -162 -55 -236.5t-106 -127t-186 -52.5q-56 0 -138 12l20 121q69 -7 107 -7q71 0 111.5 31t53.5 73t38 186l159 949h155z" />
    <glyph glyph-name="Kcommaaccent" unicode="&#x136;" horiz-adv-x="1275" 
d="M1291 1365l-461 -476l324 -889h-175l-276 770l-388 -398l-62 -372h-167l228 1365h167l-130 -778l750 778h190zM515 -115h159l-207 -355h-64z" />
    <glyph glyph-name="kcommaaccent" unicode="&#x137;" horiz-adv-x="1003" 
d="M228 0h-156l228 1365h156l-144 -861l540 509h183l-389 -361l252 -652h-166l-213 547l-239 -237zM384 -109h159l-207 -355h-64z" />
    <glyph glyph-name="kgreenlandic" unicode="&#x138;" horiz-adv-x="1006" 
d="M229 0h-156l170 1014h155l-85 -510l540 509h183l-389 -361l252 -652h-166l-213 547l-239 -237z" />
    <glyph glyph-name="Lacute" unicode="&#x139;" horiz-adv-x="1042" 
d="M930 0h-844l228 1365h167l-204 -1220h677zM747 1677l-401 -189l-43 81l382 228z" />
    <glyph glyph-name="lacute" unicode="&#x13a;" horiz-adv-x="470" 
d="M456 1365l-228 -1365h-156l228 1365h156zM698 1677l-401 -189l-43 81l382 228z" />
    <glyph glyph-name="Lcommaaccent" unicode="&#x13b;" horiz-adv-x="1042" 
d="M930 0h-844l228 1365h167l-204 -1220h677zM453 -115h159l-207 -355h-64z" />
    <glyph glyph-name="lcommaaccent" unicode="&#x13c;" horiz-adv-x="470" 
d="M456 1365l-228 -1365h-156l228 1365h156zM59 -109h159l-207 -355h-64z" />
    <glyph glyph-name="Lcaron" unicode="&#x13d;" horiz-adv-x="1042" 
d="M930 0h-844l228 1365h167l-204 -1220h677zM734 1353h159l-207 -355h-64z" />
    <glyph glyph-name="lcaron" unicode="&#x13e;" horiz-adv-x="628" 
d="M456 1365l-228 -1365h-156l228 1365h156zM620 1365h159l-207 -355h-64z" />
    <glyph glyph-name="Ldot" unicode="&#x13f;" horiz-adv-x="1042" 
d="M930 0h-844l228 1365h167l-204 -1220h677zM893 582h-225l38 229h226z" />
    <glyph glyph-name="ldot" unicode="&#x140;" horiz-adv-x="696" 
d="M456 1365l-228 -1365h-156l228 1365h156zM708 582h-225l38 229h226z" />
    <glyph glyph-name="Nacute" unicode="&#x143;" horiz-adv-x="1341" 
d="M1085 0h-133l-535 1167l-196 -1167h-135l228 1365h187l497 -1088l182 1088h134zM1152 1677l-401 -189l-43 81l382 228z" />
    <glyph glyph-name="nacute" unicode="&#x144;" horiz-adv-x="1122" 
d="M880 0h-149l98 583q17 100 17 145q0 79 -49 134.5t-141 55.5q-113 0 -215.5 -110t-160.5 -445l-63 -363h-145l170 1013h135l-38 -226q131 255 356 255q133 0 216.5 -81.5t83.5 -213.5q0 -60 -17 -162zM972 1356l-401 -189l-43 81l382 228z" />
    <glyph glyph-name="Ncommaaccent" unicode="&#x145;" horiz-adv-x="1341" 
d="M1085 0h-133l-535 1167l-196 -1167h-135l228 1365h187l497 -1088l182 1088h134zM515 -115h159l-207 -355h-64z" />
    <glyph glyph-name="ncommaaccent" unicode="&#x146;" horiz-adv-x="1122" 
d="M880 0h-149l98 583q17 100 17 145q0 79 -49 134.5t-141 55.5q-113 0 -215.5 -110t-160.5 -445l-63 -363h-145l170 1013h135l-38 -226q131 255 356 255q133 0 216.5 -81.5t83.5 -213.5q0 -60 -17 -162zM391 -109h159l-207 -355h-64z" />
    <glyph glyph-name="Ncaron" unicode="&#x147;" horiz-adv-x="1341" 
d="M1085 0h-133l-535 1167l-196 -1167h-135l228 1365h187l497 -1088l182 1088h134zM565 1741l145 20l158 -136l203 136l144 -20l-371 -259z" />
    <glyph glyph-name="ncaron" unicode="&#x148;" horiz-adv-x="1122" 
d="M880 0h-149l98 583q17 100 17 145q0 79 -49 134.5t-141 55.5q-113 0 -215.5 -110t-160.5 -445l-63 -363h-145l170 1013h135l-38 -226q131 255 356 255q133 0 216.5 -81.5t83.5 -213.5q0 -60 -17 -162zM389 1420l145 20l158 -136l203 136l144 -20l-371 -259z" />
    <glyph glyph-name="napostrophe" unicode="&#x149;" horiz-adv-x="1402" 
d="M1160 0h-149l98 583q17 100 17 145q0 79 -49 134.5t-141 55.5q-113 0 -215.5 -110t-160.5 -445l-63 -363h-145l170 1013h135l-38 -226q131 255 356 255q133 0 216.5 -81.5t83.5 -213.5q0 -60 -17 -162zM259 1365h198l-32 -192l-202 -262h-79l171 262h-88z" />
    <glyph glyph-name="Eng" unicode="&#x14a;" horiz-adv-x="1343" 
d="M86 0l228 1365h153l-50 -304q183 332 473 332q103 0 190.5 -51t125.5 -146.5t38 -180.5q0 -82 -24 -227l-97 -578q-30 -183 -51.5 -263.5t-72.5 -150t-130 -108.5t-174 -39q-72 0 -182 16l22 126q90 -9 142 -9q82 0 132.5 31.5t79.5 96.5t62 263l104 626q24 145 24 203
q0 107 -59.5 180.5t-174.5 73.5q-103 0 -203 -72t-174 -217.5t-131 -477.5l-84 -489h-167z" />
    <glyph glyph-name="eng" unicode="&#x14b;" horiz-adv-x="1122" 
d="M72 0l170 1013h135l-38 -226q131 255 356 255q133 0 216.5 -83t83.5 -212q0 -60 -17 -162l-87 -520q-27 -160 -55 -235.5t-106 -128t-186 -52.5q-56 0 -138 12l20 121q69 -7 106 -7q62 0 100 22t53 50.5t35 108.5l6 22q6 26 17 87l86 518q17 100 17 145q0 79 -49 134.5
t-141 55.5q-113 0 -215.5 -110t-160.5 -445l-63 -363h-145z" />
    <glyph glyph-name="Omacron" unicode="&#x14c;" horiz-adv-x="1315" 
d="M629 -27q-235 0 -376 168.5t-141 443.5q0 310 174 559t462 249q228 0 372 -158t144 -434q0 -327 -171 -577.5t-464 -250.5zM629 110q156 0 265.5 118.5t152.5 300t43 307.5q0 197 -98 308t-250 111q-218 0 -336.5 -218.5t-118.5 -486.5q0 -212 96 -326t246 -114z
M1133 1550h-614l18 109h615z" />
    <glyph glyph-name="omacron" unicode="&#x14d;" horiz-adv-x="1066" 
d="M483 -30q-189 0 -298 131.5t-109 336.5q0 232 143 416t367 184q185 0 295 -126.5t110 -344.5q0 -226 -141 -411.5t-367 -185.5zM490 96q161 0 248 159t87 365q0 156 -73.5 225.5t-174.5 69.5q-159 0 -246 -158t-87 -355q0 -151 67 -228.5t179 -77.5zM969 1236h-614
l18 109h615z" />
    <glyph glyph-name="Obreve" unicode="&#x14e;" horiz-adv-x="1315" 
d="M629 -27q-235 0 -376 168.5t-141 443.5q0 310 174 559t462 249q228 0 372 -158t144 -434q0 -327 -171 -577.5t-464 -250.5zM629 110q156 0 265.5 118.5t152.5 300t43 307.5q0 197 -98 308t-250 111q-218 0 -336.5 -218.5t-118.5 -486.5q0 -212 96 -326t246 -114z
M543 1759h110q5 -143 155 -143q73 0 122 27t88 116h114q-76 -255 -329 -255q-137 0 -198 63.5t-62 191.5z" />
    <glyph glyph-name="obreve" unicode="&#x14f;" horiz-adv-x="1066" 
d="M483 -30q-189 0 -298 131.5t-109 336.5q0 232 143 416t367 184q185 0 295 -126.5t110 -344.5q0 -226 -141 -411.5t-367 -185.5zM490 96q161 0 248 159t87 365q0 156 -73.5 225.5t-174.5 69.5q-159 0 -246 -158t-87 -355q0 -151 67 -228.5t179 -77.5zM371 1438h110
q5 -143 155 -143q73 0 122 27t88 116h114q-76 -255 -329 -255q-137 0 -198 63.5t-62 191.5z" />
    <glyph glyph-name="Ohungarumlaut" unicode="&#x150;" horiz-adv-x="1315" 
d="M629 -27q-235 0 -376 168.5t-141 443.5q0 310 174 559t462 249q228 0 372 -158t144 -434q0 -327 -171 -577.5t-464 -250.5zM629 110q156 0 265.5 118.5t152.5 300t43 307.5q0 197 -98 308t-250 111q-218 0 -336.5 -218.5t-118.5 -486.5q0 -212 96 -326t246 -114z
M939 1694l-319 -206l-51 78l303 231zM1253 1694l-319 -206l-51 78l303 231z" />
    <glyph glyph-name="ohungarumlaut" unicode="&#x151;" horiz-adv-x="1066" 
d="M483 -30q-189 0 -298 131.5t-109 336.5q0 232 143 416t367 184q185 0 295 -126.5t110 -344.5q0 -226 -141 -411.5t-367 -185.5zM490 96q161 0 248 159t87 365q0 156 -73.5 225.5t-174.5 69.5q-159 0 -246 -158t-87 -355q0 -151 67 -228.5t179 -77.5zM778 1373l-319 -206
l-51 78l303 231zM1092 1373l-319 -206l-51 78l303 231z" />
    <glyph glyph-name="Racute" unicode="&#x154;" horiz-adv-x="1297" 
d="M755 598h-402l-100 -598h-167l228 1365h427q193 0 287.5 -40.5t150.5 -126.5t56 -196q0 -139 -87.5 -245t-229.5 -129l192 -628h-177zM375 735h313q377 0 377 271q0 226 -294 226h-312zM1050 1677l-401 -189l-43 81l382 228z" />
    <glyph glyph-name="racute" unicode="&#x155;" horiz-adv-x="694" 
d="M228 0h-156l170 1014h155l-48 -265q81 155 169.5 224.5t209.5 69.5q15 0 34 -1l-26 -160l-38 1q-93 0 -151.5 -35t-106.5 -99t-89 -159t-85 -363zM822 1356l-401 -189l-43 81l382 228z" />
    <glyph glyph-name="Rcommaaccent" unicode="&#x156;" horiz-adv-x="1297" 
d="M755 598h-402l-100 -598h-167l228 1365h427q193 0 287.5 -40.5t150.5 -126.5t56 -196q0 -139 -87.5 -245t-229.5 -129l192 -628h-177zM375 735h313q377 0 377 271q0 226 -294 226h-312zM501 -115h159l-207 -355h-64z" />
    <glyph glyph-name="rcommaaccent" unicode="&#x157;" horiz-adv-x="694" 
d="M229 0h-156l170 1014h155l-48 -265q81 155 169.5 224.5t209.5 69.5q15 0 34 -1l-26 -160l-38 1q-93 0 -151.5 -35t-106.5 -99t-89 -159t-85 -363zM61 -109h159l-207 -355h-64z" />
    <glyph glyph-name="Rcaron" unicode="&#x158;" horiz-adv-x="1297" 
d="M755 598h-402l-100 -598h-167l228 1365h427q193 0 287.5 -40.5t150.5 -126.5t56 -196q0 -139 -87.5 -245t-229.5 -129l192 -628h-177zM375 735h313q377 0 377 271q0 226 -294 226h-312zM453 1741l145 20l158 -136l203 136l144 -20l-371 -259z" />
    <glyph glyph-name="rcaron" unicode="&#x159;" horiz-adv-x="694" 
d="M228 0h-156l170 1014h155l-48 -265q81 155 169.5 224.5t209.5 69.5q15 0 34 -1l-26 -160l-38 1q-93 0 -151.5 -35t-106.5 -99t-89 -159t-85 -363zM223 1420l145 20l158 -136l203 136l144 -20l-371 -259z" />
    <glyph glyph-name="Sacute" unicode="&#x15a;" horiz-adv-x="1171" 
d="M1114 1080l-144 -55q-38 113 -132 180.5t-216 67.5q-149 0 -222.5 -71t-73.5 -168q0 -64 32.5 -109.5t85 -68t192.5 -57.5q184 -47 261 -84.5t132 -119.5t55 -196q0 -193 -141.5 -310.5t-376.5 -117.5q-441 0 -558 380l149 54q93 -296 409 -296q170 0 259.5 82t89.5 190
q0 66 -32.5 115.5t-83.5 73t-166 51.5q-176 42 -271.5 86t-150 123.5t-54.5 186.5q0 164 123.5 274.5t327.5 110.5q375 0 506 -322zM982 1677l-401 -189l-43 81l382 228z" />
    <glyph glyph-name="sacute" unicode="&#x15b;" horiz-adv-x="945" 
d="M857 796l-130 -55q-67 170 -266 170q-91 0 -146 -46.5t-55 -110.5q0 -65 42.5 -95.5t166.5 -58.5l63 -15q106 -24 164 -52.5t98 -91t40 -142.5q0 -135 -106.5 -230t-290.5 -95q-132 0 -247.5 51t-198.5 225l145 49q72 -200 306 -200q112 0 173.5 50t61.5 125
q0 59 -36.5 93.5t-162.5 64.5l-53 13q-117 28 -179.5 57.5t-104.5 89.5t-42 137q0 126 97.5 215.5t266.5 89.5q305 0 394 -238zM830 1356l-401 -189l-43 81l382 228z" />
    <glyph glyph-name="Scircumflex" unicode="&#x15c;" horiz-adv-x="1171" 
d="M1114 1080l-144 -55q-38 113 -132 180.5t-216 67.5q-149 0 -222.5 -71t-73.5 -168q0 -64 32.5 -109.5t85 -68t192.5 -57.5q184 -47 261 -84.5t132 -119.5t55 -196q0 -193 -141.5 -310.5t-376.5 -117.5q-441 0 -558 380l149 54q93 -296 409 -296q170 0 259.5 82t89.5 190
q0 66 -32.5 115.5t-83.5 73t-166 51.5q-176 42 -271.5 86t-150 123.5t-54.5 186.5q0 164 123.5 274.5t327.5 110.5q375 0 506 -322zM996 1515l-145 -20l-159 137l-202 -137l-144 20l371 260z" />
    <glyph glyph-name="scircumflex" unicode="&#x15d;" horiz-adv-x="945" 
d="M857 796l-130 -55q-67 170 -266 170q-91 0 -146 -46.5t-55 -110.5q0 -65 42.5 -95.5t166.5 -58.5l63 -15q106 -24 164 -52.5t98 -91t40 -142.5q0 -135 -106.5 -230t-290.5 -95q-132 0 -247.5 51t-198.5 225l145 49q72 -200 306 -200q112 0 173.5 50t61.5 125
q0 59 -36.5 93.5t-162.5 64.5l-53 13q-117 28 -179.5 57.5t-104.5 89.5t-42 137q0 126 97.5 215.5t266.5 89.5q305 0 394 -238zM863 1194l-145 -20l-159 137l-202 -137l-144 20l371 260z" />
    <glyph glyph-name="Tcommaaccent" unicode="&#x162;" horiz-adv-x="1000" 
d="M1099 1226h-395l-206 -1226h-166l205 1226h-396l23 139h959zM317 -115h159l-207 -355h-64z" />
    <glyph glyph-name="tcommaaccent" unicode="&#x163;" horiz-adv-x="628" 
d="M383 892l-92 -549q-16 -93 -16 -126q0 -112 128 -112q45 0 138 10l-16 -125q-1 0 -29 -3q-83 -9 -122 -9q-252 0 -252 223q0 58 26 210l80 481h-154l21 122h157l41 245l153 14l-43 -259h231l-21 -122h-230zM221 -109h159l-207 -355h-64z" />
    <glyph glyph-name="Tcaron" unicode="&#x164;" horiz-adv-x="1000" 
d="M1099 1226h-395l-206 -1226h-166l205 1226h-396l23 139h959zM385 1741l145 20l158 -136l203 136l144 -20l-371 -259z" />
    <glyph glyph-name="tcaron" unicode="&#x165;" horiz-adv-x="653" 
d="M383 892l-92 -549q-16 -93 -16 -126q0 -112 128 -112q45 0 138 10l-16 -125q-1 0 -29 -3q-83 -9 -122 -9q-252 0 -252 223q0 58 26 210l80 481h-154l21 122h157l41 245l153 14l-43 -259h231l-21 -122h-230zM644 1482h159l-207 -355h-64z" />
    <glyph glyph-name="Tbar" unicode="&#x166;" horiz-adv-x="1000" 
d="M924 939l-20 -123h-269l-137 -816h-166l136 816h-269l21 123h269l48 287h-396l23 139h959l-24 -139h-395l-49 -287h269z" />
    <glyph glyph-name="tbar" unicode="&#x167;" horiz-adv-x="628" 
d="M579 728l-18 -109h-224l-46 -276q-16 -94 -16 -126q0 -112 128 -112q44 0 138 10l-16 -125q-1 0 -30 -3q-82 -9 -121 -9q-252 0 -252 225q0 55 26 208l34 208h-147l18 109h148l27 164h-154l20 122h157l42 245l153 14l-43 -259h231l-21 -122h-230l-28 -164h224z" />
    <glyph glyph-name="Utilde" unicode="&#x168;" horiz-adv-x="1259" 
d="M1254 1365l-139 -832q-38 -226 -93.5 -332t-166.5 -168.5t-268 -62.5q-189 0 -319.5 92t-130.5 293q0 60 32 255l127 755h167l-134 -791q-28 -165 -28 -211q0 -122 83 -188.5t207 -66.5q114 0 195 45t121 122t67 243l142 847h138zM1095 1701l76 -72q-96 -100 -200 -100
q-48 0 -128 34q-86 38 -132 38q-81 0 -134 -66l-83 58q87 128 221 128q47 0 127 -34q88 -37 132 -37q67 0 121 51z" />
    <glyph glyph-name="utilde" unicode="&#x169;" horiz-adv-x="1111" 
d="M1044 1014l-170 -1014h-136l41 245q-135 -272 -369 -272q-91 0 -156.5 42.5t-94.5 100.5t-29 146q0 57 22 185l97 567h156l-103 -616q-18 -105 -18 -129q0 -79 46 -123.5t121 -44.5q126 0 233 137.5t149 386.5l65 389h146zM956 1380l76 -72q-96 -100 -200 -100
q-48 0 -128 34q-86 38 -132 38q-81 0 -134 -66l-83 58q87 128 221 128q47 0 127 -34q88 -37 132 -37q67 0 121 51z" />
    <glyph glyph-name="Umacron" unicode="&#x16a;" horiz-adv-x="1259" 
d="M1254 1365l-139 -832q-38 -226 -93.5 -332t-166.5 -168.5t-268 -62.5q-189 0 -319.5 92t-130.5 293q0 60 32 255l127 755h167l-134 -791q-28 -165 -28 -211q0 -122 83 -188.5t207 -66.5q114 0 195 45t121 122t67 243l142 847h138zM1110 1550h-614l18 109h615z" />
    <glyph glyph-name="umacron" unicode="&#x16b;" horiz-adv-x="1111" 
d="M1044 1014l-170 -1014h-136l41 245q-135 -272 -369 -272q-91 0 -156.5 42.5t-94.5 100.5t-29 146q0 57 22 185l97 567h156l-103 -616q-18 -105 -18 -129q0 -79 46 -123.5t121 -44.5q126 0 233 137.5t149 386.5l65 389h146zM990 1236h-614l18 109h615z" />
    <glyph glyph-name="Ubreve" unicode="&#x16c;" horiz-adv-x="1259" 
d="M1254 1365l-139 -832q-38 -226 -93.5 -332t-166.5 -168.5t-268 -62.5q-189 0 -319.5 92t-130.5 293q0 60 32 255l127 755h167l-134 -791q-28 -165 -28 -211q0 -122 83 -188.5t207 -66.5q114 0 195 45t121 122t67 243l142 847h138zM558 1759h110q5 -143 155 -143
q73 0 122 27t88 116h114q-76 -255 -329 -255q-137 0 -198 63.5t-62 191.5z" />
    <glyph glyph-name="ubreve" unicode="&#x16d;" horiz-adv-x="1111" 
d="M1044 1014l-170 -1014h-136l41 245q-135 -272 -369 -272q-91 0 -156.5 42.5t-94.5 100.5t-29 146q0 57 22 185l97 567h156l-103 -616q-18 -105 -18 -129q0 -79 46 -123.5t121 -44.5q126 0 233 137.5t149 386.5l65 389h146zM423 1438h110q5 -143 155 -143q73 0 122 27
t88 116h114q-76 -255 -329 -255q-137 0 -198 63.5t-62 191.5z" />
    <glyph glyph-name="Uring" unicode="&#x16e;" horiz-adv-x="1259" 
d="M1254 1365l-139 -832q-38 -226 -93.5 -332t-166.5 -168.5t-268 -62.5q-189 0 -319.5 92t-130.5 293q0 60 32 255l127 755h167l-134 -791q-28 -165 -28 -211q0 -122 83 -188.5t207 -66.5q114 0 195 45t121 122t67 243l142 847h138zM990 1634q0 -71 -50.5 -121.5
t-121.5 -50.5t-123 51t-52 122q0 70 51.5 122t127.5 52q67 0 117.5 -51.5t50.5 -123.5zM907 1634q0 38 -25.5 65t-59.5 27q-43 0 -69.5 -27t-26.5 -63q0 -38 27 -65t65 -27q37 0 63 26.5t26 63.5z" />
    <glyph glyph-name="uring" unicode="&#x16f;" horiz-adv-x="1111" 
d="M1044 1014l-170 -1014h-136l41 245q-135 -272 -369 -272q-91 0 -156.5 42.5t-94.5 100.5t-29 146q0 57 22 185l97 567h156l-103 -616q-18 -105 -18 -129q0 -79 46 -123.5t121 -44.5q126 0 233 137.5t149 386.5l65 389h146zM866 1326q0 -71 -50.5 -121.5t-121.5 -50.5
t-123 51t-52 122q0 70 51.5 122t127.5 52q67 0 117.5 -51.5t50.5 -123.5zM783 1326q0 38 -25.5 65t-59.5 27q-43 0 -69.5 -27t-26.5 -63q0 -38 27 -65t65 -27q37 0 63 26.5t26 63.5z" />
    <glyph glyph-name="Uhungarumlaut" unicode="&#x170;" horiz-adv-x="1259" 
d="M1254 1365l-139 -832q-38 -226 -93.5 -332t-166.5 -168.5t-268 -62.5q-189 0 -319.5 92t-130.5 293q0 60 32 255l127 755h167l-134 -791q-28 -165 -28 -211q0 -122 83 -188.5t207 -66.5q114 0 195 45t121 122t67 243l142 847h138zM927 1694l-319 -206l-51 78l303 231z
M1241 1694l-319 -206l-51 78l303 231z" />
    <glyph glyph-name="uhungarumlaut" unicode="&#x171;" horiz-adv-x="1111" 
d="M1044 1014l-170 -1014h-136l41 245q-135 -272 -369 -272q-91 0 -156.5 42.5t-94.5 100.5t-29 146q0 57 22 185l97 567h156l-103 -616q-18 -105 -18 -129q0 -79 46 -123.5t121 -44.5q126 0 233 137.5t149 386.5l65 389h146zM803 1373l-319 -206l-51 78l303 231zM1117 1373
l-319 -206l-51 78l303 231z" />
    <glyph glyph-name="Uogonek" unicode="&#x172;" horiz-adv-x="1259" 
d="M917 -233l11 -69q-71 -35 -152 -35q-179 0 -179 136q0 116 130 187q-65 -16 -136 -16q-194 0 -324 93t-130 292q0 60 32 255l127 755h167l-134 -791q-28 -165 -28 -211q0 -122 83 -188.5t207 -66.5q114 0 195 45t121 122t67 243l142 847h138l-139 -832
q-25 -151 -54.5 -240.5t-71.5 -143t-149 -144.5q-117 -98 -117 -167q0 -85 106 -85q43 0 88 14z" />
    <glyph glyph-name="uogonek" unicode="&#x173;" horiz-adv-x="1111" 
d="M874 0q-149 -78 -149 -160q0 -81 104 -81q43 0 86 13l12 -66q-69 -32 -151 -32q-174 0 -174 129q0 128 175 197h-39l41 245q-135 -272 -369 -272q-91 0 -156.5 42.5t-94.5 100.5t-29 146q0 57 22 185l97 567h156l-103 -616q-18 -105 -18 -129q0 -79 46 -123.5t121 -44.5
q126 0 233 137.5t149 386.5l65 389h146z" />
    <glyph glyph-name="Wcircumflex" unicode="&#x174;" horiz-adv-x="1663" 
d="M1215 0h-169l-131 1089l-438 -1089h-177l-134 1365h167l109 -1128l461 1128h128l140 -1128l456 1128h141zM1292 1515l-145 -20l-159 137l-202 -137l-144 20l371 260z" />
    <glyph glyph-name="wcircumflex" unicode="&#x175;" horiz-adv-x="1380" 
d="M959 0h-116l-127 772l-323 -772h-127l-156 1014h154l113 -762l319 762h129l121 -762l334 762h133zM1079 1194l-145 -20l-159 137l-202 -137l-144 20l371 260z" />
    <glyph glyph-name="Ycircumflex" unicode="&#x176;" horiz-adv-x="1049" 
d="M532 0h-172l95 572l-348 793h183l284 -646l472 646h168l-587 -793zM1020 1515l-145 -20l-159 137l-202 -137l-144 20l371 260z" />
    <glyph glyph-name="ycircumflex" unicode="&#x177;" horiz-adv-x="870" 
d="M941 1014l-556 -1069q-103 -199 -193 -250t-190 -51q-42 0 -100 7l23 136q51 -10 86 -10q161 0 248 180l35 71l-212 986h160l164 -771l399 771h136zM857 1194l-145 -20l-159 137l-202 -137l-144 20l371 260z" />
    <glyph glyph-name="Zacute" unicode="&#x179;" horiz-adv-x="1076" 
d="M1121 1365l-19 -113l-905 -1107h770l-24 -145h-980l24 145l887 1082h-684l23 138h908zM988 1677l-401 -189l-43 81l382 228z" />
    <glyph glyph-name="zacute" unicode="&#x17a;" horiz-adv-x="859" 
d="M733 0h-770l18 107l668 779h-519l22 128h728l-18 -103l-675 -784h567zM849 1356l-401 -189l-43 81l382 228z" />
    <glyph glyph-name="Zdotaccent" unicode="&#x17b;" horiz-adv-x="1076" 
d="M1121 1365l-19 -113l-905 -1107h770l-24 -145h-980l24 145l887 1082h-684l23 138h908zM793 1628q0 -44 -32.5 -75t-76.5 -31q-45 0 -77 31t-32 75q0 43 32 73.5t76 30.5q46 0 78 -30.5t32 -73.5z" />
    <glyph glyph-name="zdotaccent" unicode="&#x17c;" horiz-adv-x="859" 
d="M733 0h-770l18 107l668 779h-519l22 128h728l-18 -103l-675 -784h567zM666 1307q0 -44 -32.5 -75t-76.5 -31q-45 0 -77 31t-32 75q0 43 32 73.5t76 30.5q46 0 78 -30.5t32 -73.5z" />
    <glyph glyph-name="longs" unicode="&#x17f;" horiz-adv-x="1201" 
d="M553 0h-156l170 1013q36 219 139.5 301t273.5 82q42 0 93 -6l-20 -124q-46 5 -73 5q-94 0 -161.5 -44.5t-96.5 -213.5z" />
    <glyph glyph-name="Aringacute" unicode="&#x1fa;" horiz-adv-x="1155" 
d="M926 1848l-401 -175l-43 80l382 214zM607 1357q-70 55 -70 142q0 74 54 127t128 53q75 0 127 -53t52 -129q0 -103 -93 -156l234 -1341h-176l-71 400h-498l-196 -400h-155zM808 1497q0 39 -26.5 65.5t-58.5 26.5q-43 0 -70 -27.5t-27 -63.5q0 -37 27.5 -64t65.5 -27
q37 0 63 26t26 64zM772 537l-98 648l-315 -648h413z" />
    <glyph glyph-name="aringacute" unicode="&#x1fb;" horiz-adv-x="1096" 
d="M877 0h-159q-1 31 -1 51q0 78 18 147q-153 -227 -380 -227q-142 0 -232.5 87t-90.5 218q0 147 130 251t485 104q32 0 153 -6q11 65 11 106q0 192 -233 192q-205 0 -293 -171l-148 63q120 230 431 230q172 0 288 -75.5t116 -213.5q0 -56 -77 -526q-21 -127 -21 -187
q0 -9 3 -43zM781 509q-72 6 -138 6q-438 0 -438 -246q0 -76 47.5 -122t132.5 -46q134 0 249.5 115t146.5 293zM840 1285q0 -71 -50.5 -121.5t-121.5 -50.5t-123 51t-52 122q0 70 51.5 122t127.5 52q67 0 117.5 -51.5t50.5 -123.5zM757 1285q0 38 -25.5 65t-59.5 27
q-43 0 -69.5 -27t-26.5 -63q0 -38 27 -65t65 -27q37 0 63 26.5t26 63.5zM960 1736l-401 -189l-43 81l382 228z" />
    <glyph glyph-name="AEacute" unicode="&#x1fc;" horiz-adv-x="1790" 
d="M1637 0h-909l79 471h-397l-349 -471h-173l1022 1365h902l-22 -135h-690l-75 -449h590l-22 -134h-590l-84 -502h742zM828 601l97 575l-423 -575h326zM1627 1677l-401 -189l-43 81l382 228z" />
    <glyph glyph-name="aeacute" unicode="&#x1fd;" horiz-adv-x="1723" 
d="M1598 237q-154 -267 -431 -267q-137 0 -245.5 69t-158.5 202q-177 -267 -418 -267q-142 0 -229.5 83t-87.5 215q0 149 126 252t441 103q49 0 178 -7q13 55 13 102q0 201 -232 201q-185 0 -276 -168l-143 60q128 227 409 227q243 0 353 -154q148 152 352 152
q182 0 291.5 -115t109.5 -314q0 -52 -8 -118h-739q-8 -49 -8 -87q0 -142 78.5 -225t193.5 -83q181 0 301 195zM922 603h572q2 29 2 46q0 134 -74.5 205.5t-181.5 71.5q-118 0 -206 -89t-112 -234zM757 508q-70 9 -143 9q-241 0 -331 -73t-90 -177q0 -66 43 -116.5t131 -50.5
q144 0 260 131.5t130 276.5zM1229 1356l-401 -189l-43 81l382 228z" />
    <glyph glyph-name="Oslashacute" unicode="&#x1fe;" horiz-adv-x="1315" 
d="M300 91l-105 -139h-146l173 231q-110 163 -110 404q0 307 174.5 556.5t459.5 249.5q188 0 328 -114l113 141h150l-181 -230q108 -168 108 -390q0 -339 -175.5 -583.5t-450.5 -244.5q-191 0 -338 119zM334 304l637 863q-103 88 -231 88q-210 0 -331 -215t-121 -496
q0 -137 46 -240zM400 203q96 -92 228 -92q221 0 341.5 223t120.5 509q0 120 -48 226zM1101 1677l-401 -189l-43 81l382 228z" />
    <glyph glyph-name="oslashacute" unicode="&#x1ff;" horiz-adv-x="1066" 
d="M1088 1070l-174 -203q77 -123 77 -287q0 -246 -144 -428.5t-361 -182.5q-149 0 -258 88l-97 -112h-128l156 190q-83 126 -83 304q0 232 143 415.5t369 183.5q151 0 256 -90l106 122h138zM266 251l482 597q-72 67 -174 67q-157 0 -244 -158t-87 -361q0 -79 23 -145z
M805 758l-482 -599q67 -63 163 -63q164 0 251 158t87 364q0 79 -19 140zM937 1356l-401 -189l-43 81l382 228z" />
    <glyph glyph-name="tonos" unicode="&#x384;" horiz-adv-x="1024" 
d="M181 1365l-286 -320l-70 52l242 342z" />
    <glyph glyph-name="dieresistonos" unicode="&#x385;" horiz-adv-x="1024" 
d="M931 1622l-297 -199l-50 68l264 236zM911 1304q0 -43 -31.5 -73t-74.5 -30t-74.5 30t-31.5 72q0 43 31.5 72.5t73.5 29.5q44 0 75.5 -29.5t31.5 -71.5zM589 1303q0 -42 -31.5 -72t-73.5 -30t-72.5 30t-30.5 71q0 43 30.5 72.5t69.5 29.5q48 0 78 -30t30 -71z" />
    <glyph glyph-name="Alphatonos" unicode="&#x386;" horiz-adv-x="1096" 
d="M771 400h-498l-196 -400h-155l669 1365h189l238 -1365h-176zM751 537l-105 627l-308 -627h413zM405 1365l-286 -320l-70 52l242 342z" />
    <glyph glyph-name="anoteleia" unicode="&#x387;" horiz-adv-x="264" 
d="M225 391h-225l38 229h226z" />
    <glyph glyph-name="Epsilontonos" unicode="&#x388;" horiz-adv-x="1144" 
d="M86 0l228 1365h851l-23 -136h-684l-75 -448h586l-23 -135h-585l-84 -501h738l-24 -145h-905zM232 1365l-286 -320l-70 52l242 342z" />
    <glyph glyph-name="Etatonos" unicode="&#x389;" horiz-adv-x="1343" 
d="M1030 646h-669l-108 -646h-167l228 1365h167l-96 -574h669l96 574h167l-229 -1365h-166zM232 1365l-286 -320l-70 52l242 342z" />
    <glyph glyph-name="Iotatonos" unicode="&#x38a;" horiz-adv-x="508" 
d="M481 1365l-228 -1365h-167l228 1365h167zM232 1365l-286 -320l-70 52l242 342z" />
    <glyph glyph-name="Omicrontonos" unicode="&#x38c;" horiz-adv-x="1315" 
d="M629 -27q-235 0 -376 168.5t-141 443.5q0 310 174 559t462 249q228 0 372 -158t144 -434q0 -327 -171 -577.5t-464 -250.5zM629 110q156 0 265.5 118.5t152.5 300t43 307.5q0 197 -98 308t-250 111q-218 0 -336.5 -218.5t-118.5 -486.5q0 -212 96 -326t246 -114z
M303 1365l-286 -320l-70 52l242 342z" />
    <glyph glyph-name="Upsilontonos" unicode="&#x38e;" horiz-adv-x="1066" 
d="M532 0h-172l95 572l-348 793h183l284 -646l472 646h168l-587 -793zM86 1365l-286 -320l-70 52l242 342z" />
    <glyph glyph-name="Omegatonos" unicode="&#x38f;" horiz-adv-x="1345" 
d="M-24 0l24 145h340q-248 183 -248 505q0 321 185 530.5t469 209.5q229 0 374.5 -142.5t145.5 -395.5q0 -498 -387 -707h348l-25 -145h-512l24 145q215 129 294 317.5t79 373.5q0 199 -96.5 307.5t-253.5 108.5q-203 0 -336 -164.5t-133 -459.5q0 -164 54.5 -277.5
t182.5 -205.5l-24 -145h-505zM259 1365l-286 -320l-70 52l242 342z" />
    <glyph glyph-name="iotadieresistonos" unicode="&#x390;" horiz-adv-x="471" 
d="M229 0h-157l170 1014h157zM654 1622l-297 -199l-50 68l264 236zM634 1304q0 -43 -31.5 -73t-74.5 -30t-74.5 30t-31.5 72q0 43 31.5 72.5t73.5 29.5q44 0 75.5 -29.5t31.5 -71.5zM312 1303q0 -42 -31.5 -72t-73.5 -30t-72.5 30t-30.5 71q0 43 30.5 72.5t69.5 29.5
q48 0 78 -30t30 -71z" />
    <glyph glyph-name="Alpha" unicode="&#x391;" horiz-adv-x="1155" 
d="M792 400h-498l-196 -400h-155l669 1365h189l238 -1365h-176zM772 537l-105 627l-308 -627h413z" />
    <glyph glyph-name="Beta" unicode="&#x392;" horiz-adv-x="1251" 
d="M86 0l228 1365h428q163 0 245.5 -23.5t145.5 -104.5t63 -194q0 -247 -267 -329q99 -31 158 -114.5t59 -197.5q0 -104 -43 -189.5t-109.5 -131.5t-132 -63.5t-241.5 -17.5h-534zM383 777h258q153 0 226 22.5t119 85.5t46 152q0 73 -38 122.5t-93 62.5t-181 13l-261 -2z
M275 135h296q176 0 246.5 21t117.5 89.5t47 173.5q0 88 -41.5 142t-99.5 70t-204 16h-276z" />
    <glyph glyph-name="Gamma" unicode="&#x393;" horiz-adv-x="929" 
d="M86 0l228 1365h758l-24 -144h-591l-204 -1221h-167z" />
    <glyph glyph-name="Delta" unicode="&#x394;" horiz-adv-x="1179" 
d="M-40 0l670 1365h205l233 -1365h-1108zM187 145h687l-159 1078h-14z" />
    <glyph glyph-name="Epsilon" unicode="&#x395;" horiz-adv-x="1144" 
d="M86 0l228 1365h851l-23 -136h-684l-75 -448h586l-23 -135h-585l-84 -501h738l-24 -145h-905z" />
    <glyph glyph-name="Zeta" unicode="&#x396;" horiz-adv-x="1076" 
d="M1121 1365l-19 -113l-905 -1107h770l-24 -145h-980l24 145l887 1082h-684l23 138h908z" />
    <glyph glyph-name="Eta" unicode="&#x397;" horiz-adv-x="1343" 
d="M1030 646h-669l-108 -646h-167l228 1365h167l-96 -574h669l96 574h167l-229 -1365h-166z" />
    <glyph glyph-name="Theta" unicode="&#x398;" horiz-adv-x="1315" 
d="M629 -27q-235 0 -376 168.5t-141 443.5q0 309 174 558.5t462 249.5q230 0 373 -160.5t143 -431.5q0 -328 -171.5 -578t-463.5 -250zM629 110q157 0 266.5 119.5t152 300t42.5 306.5q0 198 -97.5 308.5t-250.5 110.5q-218 0 -336.5 -218.5t-118.5 -486.5q0 -210 95.5 -325
t246.5 -115zM894 778l-17 -145h-387l17 145h387z" />
    <glyph glyph-name="Iota" unicode="&#x399;" horiz-adv-x="508" 
d="M481 1365l-228 -1365h-167l228 1365h167z" />
    <glyph glyph-name="Kappa" unicode="&#x39a;" horiz-adv-x="1275" 
d="M1291 1365l-461 -476l324 -889h-175l-276 770l-388 -398l-62 -372h-167l228 1365h167l-130 -778l750 778h190z" />
    <glyph glyph-name="Lambda" unicode="&#x39b;" horiz-adv-x="1131" 
d="M103 0h-167l666 1365h216l230 -1365h-170l-188 1227h-15z" />
    <glyph glyph-name="Mu" unicode="&#x39c;" horiz-adv-x="1670" 
d="M1414 0h-166l210 1253l-656 -1253h-126l-244 1233l-207 -1233h-139l228 1365h253l223 -1118l584 1118h269z" />
    <glyph glyph-name="Nu" unicode="&#x39d;" horiz-adv-x="1341" 
d="M1085 0h-133l-535 1167l-196 -1167h-135l228 1365h187l497 -1088l182 1088h134z" />
    <glyph glyph-name="Xi" unicode="&#x39e;" horiz-adv-x="1060" 
d="M198 1221l24 144h903l-24 -144h-903zM203 652l24 145h699l-24 -145h-699zM-6 0l24 145h903l-24 -145h-903z" />
    <glyph glyph-name="Omicron" unicode="&#x39f;" horiz-adv-x="1315" 
d="M629 -27q-235 0 -376 168.5t-141 443.5q0 310 174 559t462 249q228 0 372 -158t144 -434q0 -327 -171 -577.5t-464 -250.5zM629 110q156 0 265.5 118.5t152.5 300t43 307.5q0 197 -98 308t-250 111q-218 0 -336.5 -218.5t-118.5 -486.5q0 -212 96 -326t246 -114z" />
    <glyph glyph-name="Pi" unicode="&#x3a0;" horiz-adv-x="1296" 
d="M94 0l228 1365h939l-229 -1365h-167l205 1221h-605l-204 -1221h-167z" />
    <glyph glyph-name="Rho" unicode="&#x3a1;" horiz-adv-x="1140" 
d="M345 552l-92 -552h-167l228 1365h375q166 0 259.5 -29.5t159.5 -129.5t66 -218q0 -157 -114.5 -296.5t-439.5 -139.5h-275zM368 688h187q174 0 252 18t135.5 94.5t57.5 183.5q0 83 -35 142.5t-90 82t-190 22.5l-227 -2z" />
    <glyph glyph-name="Sigma" unicode="&#x3a3;" horiz-adv-x="1022" 
d="M-1 0l21 125l544 616l-337 496l21 128h835l-21 -128h-630l331 -495l-546 -597h721l-25 -145h-914z" />
    <glyph glyph-name="Tau" unicode="&#x3a4;" horiz-adv-x="1000" 
d="M1099 1226h-395l-206 -1226h-166l205 1226h-396l23 139h959z" />
    <glyph glyph-name="Upsilon" unicode="&#x3a5;" horiz-adv-x="1049" 
d="M532 0h-172l95 572l-348 793h183l284 -646l472 646h168l-587 -793z" />
    <glyph glyph-name="Phi" unicode="&#x3a6;" horiz-adv-x="1530" 
d="M830 1365h166l-22 -129q492 -57 492 -480q0 -257 -168 -440t-509 -191l-21 -125h-167l22 129q-491 58 -491 480q0 257 167.5 440t509.5 192zM789 1121q-237 -4 -358 -149.5t-121 -354.5q0 -312 333 -367zM809 245q239 5 359 150.5t120 353.5q0 312 -334 366z" />
    <glyph glyph-name="Chi" unicode="&#x3a7;" horiz-adv-x="1103" 
d="M1012 0h-193l-271 574l-455 -574h-173l560 700l-319 665h187l248 -528l419 528h174l-523 -651z" />
    <glyph glyph-name="Psi" unicode="&#x3a8;" horiz-adv-x="1591" 
d="M632 0l43 260q-226 13 -351 100t-125 307q0 86 35 293l68 405h167l-68 -405q-35 -206 -35 -275q0 -272 332 -289l162 969h167l-162 -969q147 6 229.5 39t130.5 94t69 132.5t59 298.5l68 405h166l-68 -405q-41 -250 -70 -344.5t-101 -176t-186 -124.5t-320 -55l-44 -260
h-166z" />
    <glyph glyph-name="Omega" unicode="&#x3a9;" horiz-adv-x="1345" 
d="M-24 0l24 145h340q-248 183 -248 505q0 321 185 530.5t469 209.5q229 0 374.5 -142.5t145.5 -395.5q0 -498 -387 -707h348l-25 -145h-512l24 145q215 129 294 317.5t79 373.5q0 199 -96.5 307.5t-253.5 108.5q-203 0 -336 -164.5t-133 -459.5q0 -164 54.5 -277.5
t182.5 -205.5l-24 -145h-505z" />
    <glyph glyph-name="Iotadieresis" unicode="&#x3aa;" horiz-adv-x="508" 
d="M481 1365l-228 -1365h-167l228 1365h167zM722 1625q0 -43 -31.5 -73t-74.5 -30t-74.5 30t-31.5 72q0 43 31.5 72.5t73.5 29.5q44 0 75.5 -29.5t31.5 -71.5zM400 1624q0 -42 -31.5 -72t-73.5 -30t-72.5 30t-30.5 71q0 43 30.5 72.5t69.5 29.5q48 0 78 -30t30 -71z" />
    <glyph glyph-name="Upsilondieresis" unicode="&#x3ab;" horiz-adv-x="1049" 
d="M532 0h-172l95 572l-348 793h183l284 -646l472 646h168l-587 -793zM976 1625q0 -43 -31.5 -73t-74.5 -30t-74.5 30t-31.5 72q0 43 31.5 72.5t73.5 29.5q44 0 75.5 -29.5t31.5 -71.5zM654 1624q0 -42 -31.5 -72t-73.5 -30t-72.5 30t-30.5 71q0 43 30.5 72.5t69.5 29.5
q48 0 78 -30t30 -71z" />
    <glyph glyph-name="alphatonos" unicode="&#x3ac;" horiz-adv-x="1226" 
d="M1100 0h-171l-83 348q-181 -375 -429 -375q-152 0 -245.5 114.5t-93.5 316.5q0 254 139 446t343 192q139 0 216.5 -69.5t118.5 -252.5l139 294h155l-236 -481zM816 533q-41 190 -95.5 286.5t-155.5 96.5q-136 0 -226 -152t-90 -357q0 -148 61 -228.5t146 -80.5
q92 0 172 95.5t188 339.5zM960 1356l-401 -189l-43 81l382 228z" />
    <glyph glyph-name="epsilontonos" unicode="&#x3ad;" horiz-adv-x="919" 
d="M569 594l-14 -128q-134 0 -192.5 -11.5t-99 -61t-40.5 -125.5q0 -170 214 -170q115 0 184.5 50t106.5 177l143 -26q-76 -326 -455 -326q-183 0 -274 77.5t-91 201.5q0 217 252 285q-104 46 -137 97t-33 118q0 120 98.5 205t280.5 85q329 0 367 -284l-149 -26
q-21 184 -219 184q-207 0 -207 -175q0 -85 58 -116t207 -31zM844 1356l-401 -189l-43 81l382 228z" />
    <glyph glyph-name="etatonos" unicode="&#x3ae;" horiz-adv-x="1114" 
d="M822 -341h-156l146 868q20 121 20 195q0 189 -166 189q-130 0 -224.5 -100.5t-120.5 -255.5l-93 -555h-156l170 1014h144l-32 -195q144 223 357 223q129 0 205.5 -76t76.5 -207q0 -80 -28 -243zM938 1356l-401 -189l-43 81l382 228z" />
    <glyph glyph-name="iotatonos" unicode="&#x3af;" horiz-adv-x="471" 
d="M229 0h-157l170 1014h157zM586 1356l-401 -189l-43 81l382 228z" />
    <glyph glyph-name="upsilondieresistonos" unicode="&#x3b0;" horiz-adv-x="1063" 
d="M385 1014l-103 -614q-16 -94 -16 -139q0 -161 198 -161q142 0 198 64.5t85 235.5l102 614h156l-103 -614q-28 -171 -67 -251t-131 -128t-261 -48q-334 0 -334 260q0 63 22 194l98 587h156zM975 1622l-297 -199l-50 68l264 236zM955 1304q0 -43 -31.5 -73t-74.5 -30
t-74.5 30t-31.5 72q0 43 31.5 72.5t73.5 29.5q44 0 75.5 -29.5t31.5 -71.5zM633 1303q0 -42 -31.5 -72t-73.5 -30t-72.5 30t-30.5 71q0 43 30.5 72.5t69.5 29.5q48 0 78 -30t30 -71z" />
    <glyph glyph-name="alpha" unicode="&#x3b1;" horiz-adv-x="1226" 
d="M1100 0h-171l-83 348q-181 -375 -429 -375q-152 0 -245.5 114.5t-93.5 316.5q0 254 139 446t343 192q139 0 216.5 -69.5t118.5 -252.5l139 294h155l-236 -481zM816 533q-41 190 -95.5 286.5t-155.5 96.5q-136 0 -226 -152t-90 -357q0 -148 61 -228.5t146 -80.5
q92 0 172 95.5t188 339.5z" />
    <glyph glyph-name="beta" unicode="&#x3b2;" horiz-adv-x="1118" 
d="M20 -341l222 1325q42 255 143.5 333t257.5 78q170 0 275.5 -73t105.5 -210q0 -216 -260 -301q259 -76 259 -334q0 -223 -127.5 -363.5t-354.5 -140.5q-107 0 -171 34t-119 104l-75 -452h-156zM269 218q83 -107 245 -107q167 0 253.5 102.5t86.5 262.5q0 261 -286 261
l14 123q141 4 206 74t65 165q0 87 -60 133.5t-149 46.5q-79 0 -146 -47.5t-99 -239.5z" />
    <glyph glyph-name="gamma" unicode="&#x3b3;" horiz-adv-x="885" 
d="M222 -341l63 374l-200 981h164l148 -792l396 792h163l-516 -981l-62 -374h-156z" />
    <glyph glyph-name="delta" unicode="&#x3b4;" horiz-adv-x="1062" 
d="M1004 1365l-22 -128h-456l171 -140q139 -113 185 -160t75.5 -119t29.5 -184q0 -280 -140.5 -470.5t-382.5 -190.5q-205 0 -296.5 111.5t-91.5 271.5q0 146 51 279.5t135.5 213.5t167.5 104.5t194 24.5l-306 259l22 128h664zM599 900q-159 0 -256.5 -156.5t-97.5 -386.5
q0 -128 61 -193.5t163 -65.5q165 0 254 154.5t89 387.5q0 132 -61.5 196t-151.5 64z" />
    <glyph glyph-name="epsilon" unicode="&#x3b5;" horiz-adv-x="919" 
d="M569 594l-14 -128q-134 0 -192.5 -11.5t-99 -61t-40.5 -125.5q0 -170 214 -170q115 0 184.5 50t106.5 177l143 -26q-76 -326 -455 -326q-183 0 -274 77.5t-91 201.5q0 217 252 285q-104 46 -137 97t-33 118q0 120 98.5 205t280.5 85q329 0 367 -284l-149 -26
q-21 184 -219 184q-207 0 -207 -175q0 -85 58 -116t207 -31z" />
    <glyph glyph-name="zeta" unicode="&#x3b6;" horiz-adv-x="765" 
d="M289 1237l21 128h580l-17 -96q-585 -500 -585 -943q0 -116 46.5 -152t169.5 -43q99 -6 141.5 -39.5t42.5 -109.5q0 -128 -126 -349l-146 27q110 183 110 255q0 39 -28 53.5t-105 18.5q-110 4 -165 37.5t-85 103.5t-30 170q0 246 179 503.5t408 435.5h-411z" />
    <glyph glyph-name="eta" unicode="&#x3b7;" horiz-adv-x="1114" 
d="M822 -341h-156l146 868q20 121 20 195q0 189 -166 189q-130 0 -224.5 -100.5t-120.5 -255.5l-93 -555h-156l170 1014h144l-32 -195q144 223 357 223q129 0 205.5 -76t76.5 -207q0 -80 -28 -243z" />
    <glyph glyph-name="theta" unicode="&#x3b8;" horiz-adv-x="1085" 
d="M653 1393q164 0 259 -119t95 -378q0 -357 -125.5 -640.5t-393.5 -283.5q-101 0 -172.5 37t-116.5 107.5t-60.5 151t-15.5 254.5q0 173 62 403.5t184 349t284 118.5zM310 769h532q6 84 6 144q0 354 -212 354q-240 0 -326 -498zM295 658q-15 -120 -15 -207q0 -353 214 -353
q253 0 333 560h-532z" />
    <glyph glyph-name="iota" unicode="&#x3b9;" horiz-adv-x="471" 
d="M229 0h-157l170 1014h157z" />
    <glyph glyph-name="kappa" unicode="&#x3ba;" horiz-adv-x="1006" 
d="M229 0h-156l170 1014h155l-85 -510l540 509h183l-389 -361l252 -652h-166l-213 547l-239 -237z" />
    <glyph glyph-name="lambda" unicode="&#x3bb;" horiz-adv-x="856" 
d="M-60 0l461 943l-103 422h154l333 -1365h-163l-172 758l-358 -758h-152z" />
    <glyph glyph-name="mu" unicode="&#x3bc;" horiz-adv-x="1120" 
d="M15 -341l227 1355h156l-96 -568q-13 -78 -13 -127q0 -76 51.5 -142t145.5 -66q255 0 313 348l93 555h156l-170 -1014h-142l28 168q-70 -116 -137 -155.5t-152 -39.5q-164 0 -224 167l-80 -481h-156z" />
    <glyph glyph-name="nu" unicode="&#x3bd;" horiz-adv-x="910" 
d="M447 0h-144l-207 1014h168l154 -794l398 794h141z" />
    <glyph glyph-name="xi" unicode="&#x3be;" horiz-adv-x="866" 
d="M525 -329q83 177 83 246q0 48 -30.5 63.5t-128.5 20.5q-217 12 -292 97t-75 202q0 170 98.5 291.5t283.5 153.5q-208 49 -208 203q0 101 88.5 186.5t242.5 120.5h-281l18 110h687l-21 -128h-97q-132 0 -240 -30t-165.5 -92.5t-57.5 -140.5q0 -177 287 -177h63l-23 -118
h-59q-150 0 -241.5 -35t-145.5 -121t-54 -182q0 -80 46.5 -131.5t180.5 -57.5q135 -6 188 -17t84.5 -48t31.5 -96q0 -146 -115 -347z" />
    <glyph glyph-name="omicron" unicode="&#x3bf;" horiz-adv-x="1066" 
d="M483 -30q-189 0 -298 131.5t-109 336.5q0 232 143 416t367 184q185 0 295 -126.5t110 -344.5q0 -226 -141 -411.5t-367 -185.5zM490 96q161 0 248 159t87 365q0 156 -73.5 225.5t-174.5 69.5q-159 0 -246 -158t-87 -355q0 -151 67 -228.5t179 -77.5z" />
    <glyph glyph-name="pi" unicode="&#x3c0;" horiz-adv-x="1109" 
d="M106 0l148 886h-128l21 128h986l-21 -128h-129l-148 -886h-156l148 886h-417l-148 -886h-156z" />
    <glyph glyph-name="rho" unicode="&#x3c1;" horiz-adv-x="1100" 
d="M-12 -341l117 702q47 277 81 375t95 167.5t141.5 104.5t184.5 35q210 0 315.5 -115t105.5 -313q0 -264 -137 -453t-352 -189q-227 0 -304 230l-91 -544h-156zM612 917q-164 0 -244.5 -144.5t-80.5 -376.5q0 -148 64 -223t170 -75q160 0 248.5 155.5t88.5 364.5
q0 299 -246 299z" />
    <glyph glyph-name="sigma1" unicode="&#x3c2;" horiz-adv-x="969" 
d="M573 -329q79 138 79 257q0 48 -23.5 66t-92.5 28q-165 23 -258.5 65.5t-146.5 135t-53 219.5q0 245 129 422.5t358 177.5q324 0 346 -355l-153 -26q-7 255 -203 255q-146 0 -225.5 -133.5t-79.5 -320.5q0 -139 71.5 -204t265.5 -92q138 -20 188.5 -58.5t50.5 -137.5
q0 -144 -104 -326z" />
    <glyph glyph-name="sigma" unicode="&#x3c3;" horiz-adv-x="1058" 
d="M1104 1014l-22 -128h-249q141 -120 141 -317q0 -258 -135 -427t-360 -169q-196 0 -298.5 114t-102.5 312q0 260 141.5 446t380.5 186q63 0 129 -17h375zM582 916q-153 0 -243 -144t-90 -371q0 -156 70 -229.5t165 -73.5q141 0 231.5 135.5t90.5 370.5q0 312 -224 312z
" />
    <glyph glyph-name="tau" unicode="&#x3c4;" horiz-adv-x="814" 
d="M245 0l148 886h-309l21 128h774l-21 -128h-310l-148 -886h-155z" />
    <glyph glyph-name="upsilon" unicode="&#x3c5;" horiz-adv-x="1063" 
d="M385 1014l-103 -614q-16 -94 -16 -139q0 -161 198 -161q142 0 198 64.5t85 235.5l102 614h156l-103 -614q-28 -171 -67 -251t-131 -128t-261 -48q-334 0 -334 260q0 63 22 194l98 587h156z" />
    <glyph glyph-name="phi" unicode="&#x3c6;" horiz-adv-x="1323" 
d="M507 96l157 942q43 4 91 4q224 0 354 -125.5t130 -349.5q0 -246 -143 -415.5t-455 -181.5l-52 -311h-155l52 316q-402 49 -402 459q0 192 89.5 334.5t236.5 206.5l49 -118q-211 -126 -211 -417q0 -290 259 -344zM661 87q221 23 315 159t94 335q0 315 -269 343z" />
    <glyph glyph-name="chi" unicode="&#x3c7;" horiz-adv-x="928" 
d="M119 1014h186l174 -507l347 507h154l-453 -643l254 -712h-182l-199 622l-434 -622h-158l536 747z" />
    <glyph glyph-name="psi" unicode="&#x3c8;" horiz-adv-x="1410" 
d="M488 -341l53 314q-187 0 -300.5 74t-113.5 254q0 50 19 163l92 550h156l-93 -550q-16 -100 -16 -160q0 -201 277 -204l153 914h156l-153 -914q134 3 207.5 31t108 85.5t57.5 192.5l101 605h156l-101 -605q-23 -137 -47 -201.5t-85 -121.5t-153.5 -83t-265.5 -30l-52 -314
h-156z" />
    <glyph glyph-name="omega" unicode="&#x3c9;" horiz-adv-x="1395" 
d="M812 759l-61 -365q-9 -54 -9 -122q0 -175 144 -175q251 0 251 479q0 223 -116 388l120 78q168 -191 168 -492q0 -297 -118 -437.5t-300 -140.5q-113 0 -161.5 45.5t-75.5 130.5q-94 -175 -258 -175q-148 0 -234.5 98.5t-86.5 297.5q0 393 298 673l101 -78
q-229 -247 -229 -610q0 -256 158 -256q45 0 84.5 27t61.5 75.5t46 193.5l61 365h156z" />
    <glyph glyph-name="iotadieresis" unicode="&#x3ca;" horiz-adv-x="471" 
d="M229 0h-157l170 1014h157zM634 1304q0 -43 -31.5 -73t-74.5 -30t-74.5 30t-31.5 72q0 43 31.5 72.5t73.5 29.5q44 0 75.5 -29.5t31.5 -71.5zM312 1303q0 -42 -31.5 -72t-73.5 -30t-72.5 30t-30.5 71q0 43 30.5 72.5t69.5 29.5q48 0 78 -30t30 -71z" />
    <glyph glyph-name="upsilondieresis" unicode="&#x3cb;" horiz-adv-x="1063" 
d="M385 1014l-103 -614q-16 -94 -16 -139q0 -161 198 -161q142 0 198 64.5t85 235.5l102 614h156l-103 -614q-28 -171 -67 -251t-131 -128t-261 -48q-334 0 -334 260q0 63 22 194l98 587h156zM942 1304q0 -43 -31.5 -73t-74.5 -30t-74.5 30t-31.5 72q0 43 31.5 72.5
t73.5 29.5q44 0 75.5 -29.5t31.5 -71.5zM620 1303q0 -42 -31.5 -72t-73.5 -30t-72.5 30t-30.5 71q0 43 30.5 72.5t69.5 29.5q48 0 78 -30t30 -71z" />
    <glyph glyph-name="omicrontonos" unicode="&#x3cc;" horiz-adv-x="1066" 
d="M483 -30q-189 0 -298 131.5t-109 336.5q0 232 143 416t367 184q185 0 295 -126.5t110 -344.5q0 -226 -141 -411.5t-367 -185.5zM490 96q161 0 248 159t87 365q0 156 -73.5 225.5t-174.5 69.5q-159 0 -246 -158t-87 -355q0 -151 67 -228.5t179 -77.5zM912 1356l-401 -189
l-43 81l382 228z" />
    <glyph glyph-name="upsilontonos" unicode="&#x3cd;" horiz-adv-x="1063" 
d="M385 1014l-103 -614q-16 -94 -16 -139q0 -161 198 -161q142 0 198 64.5t85 235.5l102 614h156l-103 -614q-28 -171 -67 -251t-131 -128t-261 -48q-334 0 -334 260q0 63 22 194l98 587h156zM908 1356l-401 -189l-43 81l382 228z" />
    <glyph glyph-name="omegatonos" unicode="&#x3ce;" horiz-adv-x="1395" 
d="M812 759l-61 -365q-9 -54 -9 -122q0 -175 144 -175q251 0 251 479q0 223 -116 388l120 78q168 -191 168 -492q0 -297 -118 -437.5t-300 -140.5q-113 0 -161.5 45.5t-75.5 130.5q-94 -175 -258 -175q-148 0 -234.5 98.5t-86.5 297.5q0 393 298 673l101 -78
q-229 -247 -229 -610q0 -256 158 -256q45 0 84.5 27t61.5 75.5t46 193.5l61 365h156zM1097 1356l-401 -189l-43 81l382 228z" />
    <glyph glyph-name="afii10023" unicode="&#x401;" horiz-adv-x="1117" 
d="M86 0l228 1365h851l-23 -136h-684l-75 -448h586l-23 -135h-585l-84 -501h738l-24 -145h-905zM1077 1625q0 -43 -31.5 -73t-74.5 -30t-74.5 30t-31.5 72q0 43 31.5 72.5t73.5 29.5q44 0 75.5 -29.5t31.5 -71.5zM755 1624q0 -42 -31.5 -72t-73.5 -30t-72.5 30t-30.5 71
q0 43 30.5 72.5t69.5 29.5q48 0 78 -30t30 -71z" />
    <glyph glyph-name="afii10051" unicode="&#x402;" horiz-adv-x="1277" 
d="M154 0l204 1221h-238l24 144h960l-24 -144h-555l-88 -525q163 203 404 203q156 0 239.5 -67.5t83.5 -253.5q0 -155 -62 -434t-188 -388.5t-331 -111.5l14 144q140 0 215 71t125.5 300.5t50.5 409.5q0 192 -203 192q-162 0 -264.5 -88t-128.5 -246l-71 -427h-167z" />
    <glyph glyph-name="afii10052" unicode="&#x403;" horiz-adv-x="929" 
d="M86 0l228 1365h717l-24 -144h-550l-204 -1221h-167zM967 1677l-401 -189l-43 81l382 228z" />
    <glyph glyph-name="afii10053" unicode="&#x404;" horiz-adv-x="1242" 
d="M893 785l-24 -145h-541q-6 -56 -6 -96q0 -185 84.5 -308.5t262.5 -123.5q266 0 384 279l162 -37q-142 -381 -542 -381q-299 0 -415.5 182t-116.5 422q0 321 172 568.5t473 247.5q405 0 478 -365l-165 -31q-65 258 -316 258q-188 0 -297.5 -143t-140.5 -327h548z" />
    <glyph glyph-name="afii10054" unicode="&#x405;" horiz-adv-x="1171" 
d="M1114 1080l-144 -55q-38 113 -132 180.5t-216 67.5q-149 0 -222.5 -71t-73.5 -168q0 -64 32.5 -109.5t85 -68t192.5 -57.5q184 -47 261 -84.5t132 -119.5t55 -196q0 -193 -141.5 -310.5t-376.5 -117.5q-441 0 -558 380l149 54q93 -296 409 -296q170 0 259.5 82t89.5 190
q0 66 -32.5 115.5t-83.5 73t-166 51.5q-176 42 -271.5 86t-150 123.5t-54.5 186.5q0 164 123.5 274.5t327.5 110.5q375 0 506 -322z" />
    <glyph glyph-name="afii10055" unicode="&#x406;" horiz-adv-x="508" 
d="M481 1365l-228 -1365h-167l228 1365h167z" />
    <glyph glyph-name="afii10056" unicode="&#x407;" horiz-adv-x="508" 
d="M481 1365l-228 -1365h-167l228 1365h167zM694 1625q0 -43 -31.5 -73t-74.5 -30t-74.5 30t-31.5 72q0 43 31.5 72.5t73.5 29.5q44 0 75.5 -29.5t31.5 -71.5zM372 1624q0 -42 -31.5 -72t-73.5 -30t-72.5 30t-30.5 71q0 43 30.5 72.5t69.5 29.5q48 0 78 -30t30 -71z" />
    <glyph glyph-name="afii10057" unicode="&#x408;" horiz-adv-x="755" 
d="M741 1365l-141 -843q-36 -218 -79 -314t-146.5 -162.5t-254.5 -66.5q-100 0 -205 21l24 140q69 -16 152 -16q107 0 175.5 38.5t98 102t55.5 215.5l148 885h173z" />
    <glyph glyph-name="afii10058" unicode="&#x409;" horiz-adv-x="1615" 
d="M875 819h267q147 0 232 -28.5t135 -109t50 -206.5q0 -195 -116 -335t-388 -140h-299l-65 1183h-53l-567 -1183h-162l678 1365h243zM931 145h141q180 0 247.5 95.5t67.5 223.5q0 110 -55 160t-197 50h-248z" />
    <glyph glyph-name="afii10059" unicode="&#x40a;" horiz-adv-x="1901" 
d="M1133 798h246q217 0 306.5 -42t127.5 -111.5t38 -178.5q0 -183 -117 -324.5t-418 -141.5h-483l109 654h-580l-109 -654h-167l228 1365h167l-95 -567h580l95 567h167zM1023 145h317q190 0 264 91t74 224q0 91 -54.5 142.5t-198.5 51.5h-316z" />
    <glyph glyph-name="afii10060" unicode="&#x40b;" horiz-adv-x="1291" 
d="M525 1221l-85 -509q172 188 402 188q153 0 242.5 -80t89.5 -233q0 -45 -15 -135l-75 -452h-167l78 466q10 62 10 99q0 86 -51.5 142t-165.5 56q-217 0 -368 -169l-99 -594h-167l204 1221h-238l24 144h967l-24 -144h-562z" />
    <glyph glyph-name="afii10061" unicode="&#x40c;" horiz-adv-x="1225" 
d="M1291 1365l-461 -476l324 -889h-175l-276 770l-388 -398l-62 -372h-167l228 1365h167l-130 -778l750 778h190zM1083 1677l-401 -189l-43 81l382 228z" />
    <glyph glyph-name="afii10062" unicode="&#x40e;" horiz-adv-x="1021" 
d="M458 401l-322 964h179l254 -787l448 787h169l-609 -1044q-103 -177 -192 -249t-264 -72h-34l25 146h25q88 0 144 31t135 156zM416 1789h110q5 -143 155 -143q73 0 122 27t88 116h114q-76 -255 -329 -255q-137 0 -198 63.5t-62 191.5z" />
    <glyph glyph-name="afii10145" unicode="&#x40f;" horiz-adv-x="1332" 
d="M291 145h630l204 1220h167l-228 -1365h-402l-69 -287h-128l27 287h-392l228 1365h167z" />
    <glyph glyph-name="afii10017" unicode="&#x410;" horiz-adv-x="1155" 
d="M792 400h-498l-196 -400h-155l669 1365h189l238 -1365h-176zM772 537l-105 627l-308 -627h413z" />
    <glyph glyph-name="afii10018" unicode="&#x411;" horiz-adv-x="1200" 
d="M86 0l228 1365h799l-24 -144h-632l-71 -423h278q149 0 239 -26t145.5 -105t55.5 -207q0 -184 -120 -322t-404 -138h-494zM277 145h320q190 0 262 91.5t72 217.5q0 82 -49.5 141t-224.5 59h-295z" />
    <glyph glyph-name="afii10019" unicode="&#x412;" horiz-adv-x="1251" 
d="M86 0l228 1365h428q163 0 245.5 -23.5t145.5 -104.5t63 -194q0 -247 -267 -329q99 -31 158 -114.5t59 -197.5q0 -104 -43 -189.5t-109.5 -131.5t-132 -63.5t-241.5 -17.5h-534zM383 777h258q153 0 226 22.5t119 85.5t46 152q0 73 -38 122.5t-93 62.5t-181 13l-261 -2z
M275 135h296q176 0 246.5 21t117.5 89.5t47 173.5q0 88 -41.5 142t-99.5 70t-204 16h-276z" />
    <glyph glyph-name="afii10020" unicode="&#x413;" horiz-adv-x="888" 
d="M86 0l228 1365h717l-24 -144h-550l-204 -1221h-167z" />
    <glyph glyph-name="afii10021" unicode="&#x414;" horiz-adv-x="1262" 
d="M72 145l569 1220h274l174 -1220h102l-72 -432h-134l28 287h-913l-68 -287h-133l72 432h101zM236 145h686l-138 1082h-71zM-53 0zM1167 0z" />
    <glyph glyph-name="afii10022" unicode="&#x415;" horiz-adv-x="1144" 
d="M86 0l228 1365h851l-23 -136h-684l-75 -448h586l-23 -135h-585l-84 -501h738l-24 -145h-905z" />
    <glyph glyph-name="afii10024" unicode="&#x416;" horiz-adv-x="1542" 
d="M1144 764l364 -764h-190l-331 683l-114 -30l-109 -653h-156l110 653l-101 38l-539 -691h-183l597 755l-314 610h204l286 -579l68 -22l101 601h155l-100 -601l87 23l492 578h189z" />
    <glyph glyph-name="afii10025" unicode="&#x417;" horiz-adv-x="1131" 
d="M-5 379l156 35q35 -304 355 -304q173 0 263.5 89.5t90.5 214.5q0 113 -74 169.5t-253 56.5h-79l24 144h115q135 0 218 73.5t83 189.5q0 99 -71 153.5t-203 54.5q-159 0 -238 -63.5t-117 -197.5l-159 20q59 212 186.5 295.5t333.5 83.5q213 0 330 -88.5t117 -240.5
q0 -262 -314 -342q280 -37 280 -288q0 -200 -140.5 -330.5t-400.5 -130.5q-466 0 -503 406z" />
    <glyph glyph-name="afii10026" unicode="&#x418;" horiz-adv-x="1351" 
d="M271 113l-18 -113h-167l228 1365h167l-134 -802q-21 -124 -57 -273q122 177 224 286l622 657l22 132h166l-228 -1365h-167l131 783q28 162 57 273q-124 -180 -224 -286z" />
    <glyph glyph-name="afii10027" unicode="&#x419;" horiz-adv-x="1351" 
d="M271 113l-18 -113h-167l228 1365h167l-134 -802q-21 -124 -57 -273q122 177 224 286l622 657l22 132h166l-228 -1365h-167l131 783q28 162 57 273q-124 -180 -224 -286zM594 1789h110q5 -143 155 -143q73 0 122 27t88 116h114q-76 -255 -329 -255q-137 0 -198 63.5
t-62 191.5z" />
    <glyph glyph-name="afii10028" unicode="&#x41a;" horiz-adv-x="1275" 
d="M1291 1365l-461 -476l324 -889h-175l-276 770l-388 -398l-62 -372h-167l228 1365h167l-130 -778l750 778h190z" />
    <glyph glyph-name="afii10029" unicode="&#x41b;" horiz-adv-x="1131" 
d="M103 0h-167l666 1365h216l230 -1365h-170l-188 1227h-15z" />
    <glyph glyph-name="afii10030" unicode="&#x41c;" horiz-adv-x="1670" 
d="M1414 0h-166l210 1253l-656 -1253h-126l-244 1233l-207 -1233h-139l228 1365h253l223 -1118l584 1118h269z" />
    <glyph glyph-name="afii10031" unicode="&#x41d;" horiz-adv-x="1343" 
d="M1030 646h-669l-108 -646h-167l228 1365h167l-96 -574h669l96 574h167l-229 -1365h-166z" />
    <glyph glyph-name="afii10032" unicode="&#x41e;" horiz-adv-x="1315" 
d="M629 -27q-235 0 -376 168.5t-141 443.5q0 310 174 559t462 249q228 0 372 -158t144 -434q0 -327 -171 -577.5t-464 -250.5zM629 110q156 0 265.5 118.5t152.5 300t43 307.5q0 197 -98 308t-250 111q-218 0 -336.5 -218.5t-118.5 -486.5q0 -212 96 -326t246 -114z" />
    <glyph glyph-name="afii10033" unicode="&#x41f;" horiz-adv-x="1305" 
d="M86 0l228 1365h964l-229 -1365h-166l204 1221h-630l-204 -1221h-167z" />
    <glyph glyph-name="afii10034" unicode="&#x420;" horiz-adv-x="1140" 
d="M345 552l-92 -552h-167l228 1365h375q166 0 259.5 -29.5t159.5 -129.5t66 -218q0 -157 -114.5 -296.5t-439.5 -139.5h-275zM368 688h187q174 0 252 18t135.5 94.5t57.5 183.5q0 83 -35 142.5t-90 82t-190 22.5l-227 -2z" />
    <glyph glyph-name="afii10035" unicode="&#x421;" horiz-adv-x="1179" 
d="M1207 945l-149 -37q-23 199 -112 276.5t-207 77.5q-137 0 -235.5 -94t-158.5 -280t-60 -348q0 -204 89.5 -314.5t236.5 -110.5q233 0 368 321l139 -52q-153 -407 -511 -407q-239 0 -368.5 168t-129.5 428q0 311 174.5 568.5t450.5 257.5q178 0 311 -108t162 -346z" />
    <glyph glyph-name="afii10036" unicode="&#x422;" horiz-adv-x="1000" 
d="M1099 1226h-395l-206 -1226h-166l205 1226h-396l23 139h959z" />
    <glyph glyph-name="afii10037" unicode="&#x423;" horiz-adv-x="1021" 
d="M458 401l-322 964h179l254 -787l448 787h169l-609 -1044q-103 -177 -192 -249t-264 -72h-34l25 146h25q88 0 144 31t135 156z" />
    <glyph glyph-name="afii10038" unicode="&#x424;" horiz-adv-x="1530" 
d="M830 1365h166l-22 -129q492 -57 492 -480q0 -257 -168 -440t-509 -191l-21 -125h-167l22 129q-491 58 -491 480q0 257 167.5 440t509.5 192zM789 1121q-237 -4 -358 -149.5t-121 -354.5q0 -312 333 -367zM809 245q239 5 359 150.5t120 353.5q0 312 -334 366z" />
    <glyph glyph-name="afii10039" unicode="&#x425;" horiz-adv-x="1103" 
d="M1012 0h-193l-271 574l-455 -574h-173l560 700l-319 665h187l248 -528l419 528h174l-523 -651z" />
    <glyph glyph-name="afii10040" unicode="&#x426;" horiz-adv-x="1343" 
d="M100 0l228 1365h167l-204 -1220h637l204 1220h167l-204 -1220h174l-72 -432h-133l27 287h-991zM1245 0z" />
    <glyph glyph-name="afii10041" unicode="&#x427;" horiz-adv-x="1226" 
d="M805 0l109 654q-178 -188 -418 -188q-164 0 -253.5 85t-89.5 237q0 42 14 126l75 451h167l-78 -465q-10 -61 -10 -98q0 -88 55.5 -143t174.5 -55q226 0 383 168l99 593h167l-228 -1365h-167z" />
    <glyph glyph-name="afii10042" unicode="&#x428;" horiz-adv-x="1881" 
d="M100 0l228 1365h167l-204 -1220h506l205 1220h166l-204 -1220h506l205 1220h166l-228 -1365h-1513z" />
    <glyph glyph-name="afii10043" unicode="&#x429;" horiz-adv-x="1899" 
d="M1637 145h189l-73 -432h-133l27 287h-1547l228 1365h167l-204 -1220h506l205 1220h166l-204 -1220h506l205 1220h166zM1802 0z" />
    <glyph glyph-name="afii10044" unicode="&#x42a;" horiz-adv-x="1301" 
d="M247 0l204 1221h-372l24 144h539l-91 -546h277q147 0 232 -28.5t135.5 -109.5t50.5 -206q0 -194 -116 -334.5t-389 -140.5h-494zM438 145h320q180 0 247.5 95.5t67.5 224.5q0 109 -55 159t-197 50h-295z" />
    <glyph glyph-name="afii10045" unicode="&#x42b;" horiz-adv-x="1676" 
d="M1237 0l229 1365h166l-228 -1365h-167zM102 0l228 1365h167l-91 -546h277q147 0 232 -28.5t135.5 -109t50.5 -206.5q0 -195 -116 -335t-389 -140h-494zM293 145h320q180 0 247.5 95.5t67.5 223.5q0 89 -44 149.5t-208 60.5h-295z" />
    <glyph glyph-name="afii10046" unicode="&#x42c;" horiz-adv-x="1140" 
d="M86 0l228 1365h167l-91 -546h277q147 0 232 -28.5t135.5 -109t50.5 -206.5q0 -195 -116 -335t-389 -140h-494zM277 145h320q180 0 247.5 95.5t67.5 223.5q0 89 -44 149.5t-208 60.5h-295z" />
    <glyph glyph-name="afii10047" unicode="&#x42d;" horiz-adv-x="1229" 
d="M413 640l24 145h541q1 31 1 45q0 185 -85 305t-263 120q-125 0 -210.5 -58t-147.5 -200l-159 31q149 365 529 365q247 0 381.5 -148.5t134.5 -450.5q0 -379 -175 -599.5t-466 -220.5q-247 0 -358.5 108t-143.5 276l163 34q54 -280 321 -280q192 0 314.5 148t146.5 380
h-548z" />
    <glyph glyph-name="afii10048" unicode="&#x42e;" horiz-adv-x="1839" 
d="M639 654h-277l-109 -654h-167l228 1365h167l-95 -567h274q63 274 224.5 434.5t387.5 160.5q230 0 373.5 -160.5t143.5 -431.5q0 -328 -172 -578t-464 -250q-235 0 -376 168t-141 444q0 31 3 69zM1153 110q156 0 265 118.5t152.5 298.5t43.5 309q0 197 -98.5 308
t-249.5 111q-218 0 -336.5 -218.5t-118.5 -485.5q0 -214 95.5 -327.5t246.5 -113.5z" />
    <glyph glyph-name="afii10049" unicode="&#x42f;" horiz-adv-x="1262" 
d="M932 591h-391l-365 -591h-193l401 632q-199 79 -199 293q0 159 73 263.5t175 140.5t278 36h510l-228 -1365h-160zM1038 1226h-378q-181 0 -242 -88.5t-61 -192.5q0 -215 241 -215h357z" />
    <glyph glyph-name="afii10065" unicode="&#x430;" horiz-adv-x="1096" 
d="M877 0h-159q-1 31 -1 51q0 78 18 147q-153 -227 -380 -227q-142 0 -232.5 87t-90.5 218q0 147 130 251t485 104q32 0 153 -6q11 65 11 106q0 192 -233 192q-205 0 -293 -171l-148 63q120 230 431 230q172 0 288 -75.5t116 -213.5q0 -56 -77 -526q-21 -127 -21 -187
q0 -9 3 -43zM781 509q-72 6 -138 6q-438 0 -438 -246q0 -76 47.5 -122t132.5 -46q134 0 249.5 115t146.5 293z" />
    <glyph glyph-name="afii10066" unicode="&#x431;" horiz-adv-x="1101" 
d="M834 1458h169q-17 -96 -79 -141t-215 -72q-119 -21 -178.5 -52.5t-108.5 -108.5t-84 -210q130 168 310 168q150 0 262.5 -102.5t112.5 -324.5q0 -291 -140 -466.5t-369 -175.5q-195 0 -299 112t-104 328q0 165 47.5 374t122 326t160.5 164.5t228 72.5q85 15 117.5 35.5
t47.5 72.5zM619 916q-151 0 -245 -141.5t-94 -354.5q0 -164 70 -243t171 -79q147 0 239 142.5t92 358.5q0 157 -66 237t-167 80z" />
    <glyph glyph-name="afii10067" unicode="&#x432;" horiz-adv-x="1085" 
d="M79 0l170 1014h437q111 0 175 -19t102 -71t38 -132q0 -189 -221 -256q184 -58 184 -232q0 -138 -94.5 -221t-238.5 -83h-552zM333 590h323q172 0 172 185q0 111 -150 111h-295zM256 128h322q214 0 214 196q0 138 -189 138h-291z" />
    <glyph glyph-name="afii10068" unicode="&#x433;" horiz-adv-x="750" 
d="M835 1014l-22 -128h-437l-148 -886h-156l170 1014h593z" />
    <glyph glyph-name="afii10069" unicode="&#x434;" horiz-adv-x="973" 
d="M27 123l440 887h233l118 -887h71l-59 -355h-117l19 232h-661l-59 -232h-116l59 355h72zM174 123h482l-79 737h-52zM-65 0zM868 0z" />
    <glyph glyph-name="afii10070" unicode="&#x435;" horiz-adv-x="1065" 
d="M938 237q-156 -266 -438 -266q-191 0 -311.5 125t-120.5 338q0 262 150 437t372 175q109 0 203.5 -47t147 -147t52.5 -243q0 -51 -9 -116h-747q-6 -48 -6 -79q0 -139 73 -225.5t198 -86.5q86 0 155.5 38.5t149.5 158.5zM257 608h576q2 32 2 48q0 123 -70 196.5t-182 73.5
q-127 0 -215.5 -94.5t-110.5 -223.5z" />
    <glyph glyph-name="afii10072" unicode="&#x436;" horiz-adv-x="1209" 
d="M892 569l273 -569h-178l-229 495l-85 -38l-77 -457h-146l76 457l-71 32l-403 -489h-168l463 563l-238 451h178l222 -431l35 -20l76 451h146l-76 -451l42 20l366 431h181z" />
    <glyph glyph-name="afii10073" unicode="&#x437;" horiz-adv-x="906" 
d="M324 466l21 128q101 0 162.5 13t101.5 59.5t40 110.5q0 139 -170 139q-189 0 -249 -184l-144 26q88 284 400 284q167 0 251.5 -69t84.5 -173q0 -178 -224 -263q194 -54 194 -222q0 -131 -102 -237t-293 -106q-366 0 -408 327l149 26q31 -227 243 -227q113 0 177 65
t64 157q0 58 -33.5 93.5t-88 44t-176.5 8.5z" />
    <glyph glyph-name="afii10074" unicode="&#x438;" horiz-adv-x="1115" 
d="M243 87l-14 -87h-156l170 1014h155l-85 -510q-27 -162 -46 -242q109 136 169 199l435 451l17 102h155l-169 -1014h-156l70 419q25 148 58 313q-72 -98 -172 -201z" />
    <glyph glyph-name="afii10075" unicode="&#x439;" horiz-adv-x="1115" 
d="M243 87l-14 -87h-156l170 1014h155l-85 -510q-27 -162 -46 -242q109 136 169 199l435 451l17 102h155l-169 -1014h-156l70 419q25 148 58 313q-72 -98 -172 -201zM409 1438h110q5 -143 155 -143q73 0 122 27t88 116h114q-76 -255 -329 -255q-137 0 -198 63.5t-62 191.5z
" />
    <glyph glyph-name="afii10076" unicode="&#x43a;" horiz-adv-x="1006" 
d="M229 0h-156l170 1014h155l-85 -510l540 509h183l-389 -361l252 -652h-166l-213 547l-239 -237z" />
    <glyph glyph-name="afii10077" unicode="&#x43b;" horiz-adv-x="856" 
d="M-81 0l502 1010h190l157 -1010h-163l-117 819h-30l-393 -819h-146z" />
    <glyph glyph-name="afii10078" unicode="&#x43c;" horiz-adv-x="1444" 
d="M72 0l170 1014h262l153 -859l453 859h261l-169 -1014h-156l147 879h-17l-468 -879h-169l-165 893h-18l-149 -893h-135z" />
    <glyph glyph-name="afii10079" unicode="&#x43d;" horiz-adv-x="1107" 
d="M66 0l170 1014h155l-70 -422h496l70 422h156l-170 -1014h-156l78 464h-496l-77 -464h-156z" />
    <glyph glyph-name="afii10080" unicode="&#x43e;" horiz-adv-x="1066" 
d="M483 -30q-189 0 -298 131.5t-109 336.5q0 232 143 416t367 184q185 0 295 -126.5t110 -344.5q0 -226 -141 -411.5t-367 -185.5zM490 96q161 0 248 159t87 365q0 156 -73.5 225.5t-174.5 69.5q-159 0 -246 -158t-87 -355q0 -151 67 -228.5t179 -77.5z" />
    <glyph glyph-name="afii10081" unicode="&#x43f;" horiz-adv-x="1085" 
d="M73 0l170 1014h770l-169 -1014h-156l148 886h-459l-148 -886h-156z" />
    <glyph glyph-name="afii10082" unicode="&#x440;" horiz-adv-x="1097" 
d="M171 -341h-156l226 1350h145l-32 -206q141 229 340 229q140 0 235 -114t95 -318q0 -239 -133 -433t-337 -194q-193 0 -301 175zM530 100q166 0 245.5 166.5t79.5 360.5q0 136 -63 206.5t-153 70.5q-128 0 -235 -160.5t-107 -362.5q0 -127 63.5 -204t169.5 -77z" />
    <glyph glyph-name="afii10083" unicode="&#x441;" horiz-adv-x="971" 
d="M940 690l-153 -33q-15 122 -79.5 187t-151.5 65q-159 0 -237.5 -161t-78.5 -349q0 -145 65.5 -219.5t165.5 -74.5q181 0 280 244l128 -48q-50 -155 -164 -244.5t-260 -89.5q-187 0 -284.5 147.5t-97.5 326.5q0 227 134.5 416t352.5 189q152 0 259 -99.5t121 -256.5z" />
    <glyph glyph-name="afii10084" unicode="&#x442;" horiz-adv-x="730" 
d="M201 0l149 886h-286l21 128h730l-21 -128h-289l-148 -886h-156z" />
    <glyph glyph-name="afii10085" unicode="&#x443;" horiz-adv-x="870" 
d="M941 1014l-556 -1069q-103 -199 -193 -250t-190 -51q-42 0 -100 7l23 136q51 -10 86 -10q161 0 248 180l35 71l-212 986h160l164 -771l399 771h136z" />
    <glyph glyph-name="afii10086" unicode="&#x444;" horiz-adv-x="1223" 
d="M598 -27l-53 -314h-142l54 321q-178 23 -276 148t-98 302q0 254 149.5 424.5t401.5 181.5l55 329h142l-57 -338q167 -29 271.5 -146t104.5 -297q0 -245 -142.5 -420t-409.5 -191zM614 922q-189 -20 -278.5 -154.5t-89.5 -340.5q0 -269 231 -327zM616 86q182 18 276 153
t94 343q0 272 -231 329z" />
    <glyph glyph-name="afii10087" unicode="&#x445;" horiz-adv-x="893" 
d="M812 0h-177l-211 418l-329 -418h-158l419 525l-254 488h179l184 -361l281 361h152l-371 -470z" />
    <glyph glyph-name="afii10088" unicode="&#x446;" horiz-adv-x="1083" 
d="M72 0l170 1014h155l-148 -886h455l148 886h156l-148 -886h153l-61 -361h-114l18 233h-784zM991 0z" />
    <glyph glyph-name="afii10089" unicode="&#x447;" horiz-adv-x="984" 
d="M594 0l74 440q-163 -104 -311 -104q-124 0 -192.5 57t-68.5 150q0 43 18 152l54 319h155l-47 -281q-14 -85 -14 -134q0 -85 49 -111t118 -26q141 0 255 71l80 481h156l-170 -1014h-156z" />
    <glyph glyph-name="afii10090" unicode="&#x448;" horiz-adv-x="1603" 
d="M86 0l170 1014h155l-148 -886h397l149 886h155l-148 -886h397l149 886h155l-169 -1014h-1262zM639 0zM242 0zM795 0zM1192 0z" />
    <glyph glyph-name="afii10091" unicode="&#x449;" horiz-adv-x="1612" 
d="M89 0l170 1014h155l-148 -886h397l149 886h155l-148 -886h397l149 886h155l-148 -886h170l-56 -332h-114l13 204h-1296zM1510 0zM642 0zM1195 0zM1351 0z" />
    <glyph glyph-name="afii10092" unicode="&#x44a;" horiz-adv-x="1055" 
d="M155 0l149 886h-281l21 128h437l-66 -392h254q171 0 247 -81.5t76 -205.5q0 -150 -100 -242.5t-273 -92.5h-464zM333 128h271q217 0 217 207q0 158 -183 158h-244z" />
    <glyph glyph-name="afii10093" unicode="&#x44b;" horiz-adv-x="1427" 
d="M86 0l170 1014h155l-65 -392h253q172 0 248 -81.5t76 -204.5q0 -151 -100.5 -243.5t-272.5 -92.5h-464zM263 128h272q216 0 216 207q0 158 -182 158h-245zM1016 0l170 1014h156l-170 -1014h-156z" />
    <glyph glyph-name="afii10094" unicode="&#x44c;" horiz-adv-x="973" 
d="M73 0l170 1014h155l-65 -392h253q172 0 248 -81.5t76 -204.5q0 -151 -100.5 -243.5t-272.5 -92.5h-464zM250 128h272q216 0 216 207q0 158 -182 158h-245z" />
    <glyph glyph-name="afii10095" unicode="&#x44d;" horiz-adv-x="978" 
d="M317 454l22 128h403q0 334 -245 334q-99 0 -172.5 -56.5t-106.5 -137.5l-142 34q134 286 436 286q393 0 393 -463q0 -292 -133.5 -449t-368.5 -157q-342 0 -401 299l147 31q49 -205 252 -205q132 0 221.5 95t104.5 261h-410z" />
    <glyph glyph-name="afii10096" unicode="&#x44e;" horiz-adv-x="1537" 
d="M547 475h-229l-79 -475h-167l170 1014h166l-69 -411h227q48 193 178.5 316t313.5 123q196 0 299.5 -134.5t103.5 -323.5q0 -247 -144 -429t-360 -182q-113 0 -203.5 48.5t-148.5 154t-58 299.5zM960 98q161 0 248 158.5t87 366.5q0 156 -73.5 226t-174.5 70
q-159 0 -246 -158.5t-87 -355.5q0 -161 70.5 -234t175.5 -73z" />
    <glyph glyph-name="afii10097" unicode="&#x44f;" horiz-adv-x="1051" 
d="M654 0l69 412h-284l-285 -412h-166l314 444q-163 67 -163 238q0 136 93 234t283 98h464l-169 -1014h-156zM744 540l58 346h-280q-217 0 -217 -206q0 -140 145 -140h294z" />
    <glyph glyph-name="afii10071" unicode="&#x451;" horiz-adv-x="1065" 
d="M938 237q-156 -266 -438 -266q-191 0 -311.5 125t-120.5 338q0 262 150 437t372 175q109 0 203.5 -47t147 -147t52.5 -243q0 -51 -9 -116h-747q-6 -48 -6 -79q0 -139 73 -225.5t198 -86.5q86 0 155.5 38.5t149.5 158.5zM257 608h576q2 32 2 48q0 123 -70 196.5t-182 73.5
q-127 0 -215.5 -94.5t-110.5 -223.5zM913 1304q0 -43 -31.5 -73t-74.5 -30t-74.5 30t-31.5 72q0 43 31.5 72.5t73.5 29.5q44 0 75.5 -29.5t31.5 -71.5zM591 1303q0 -42 -31.5 -72t-73.5 -30t-72.5 30t-30.5 71q0 43 30.5 72.5t69.5 29.5q48 0 78 -30t30 -71z" />
    <glyph glyph-name="afii10099" unicode="&#x452;" horiz-adv-x="1052" 
d="M62 0l193 1153h-195l19 114h195l21 126h156l-21 -126h426l-20 -114h-425l-62 -370q147 219 357 219q256 0 256 -297q0 -134 -62 -496t-188 -456t-253 -94v116q109 11 173 92t118 376t54 435q0 199 -158 199q-113 0 -213 -94t-129 -270l-86 -513h-156z" />
    <glyph glyph-name="afii10100" unicode="&#x453;" horiz-adv-x="750" 
d="M835 1014l-22 -128h-437l-148 -886h-156l170 1014h593zM876 1356l-401 -189l-43 81l382 228z" />
    <glyph glyph-name="afii10101" unicode="&#x454;" horiz-adv-x="995" 
d="M663 582l-22 -128h-403q2 -185 59.5 -270.5t197.5 -85.5q205 0 300 205l140 -31q-125 -299 -445 -299q-219 0 -319 129t-100 336q0 250 134.5 427t369.5 177q305 0 383 -286l-149 -34q-16 84 -77 139t-158 55q-249 0 -321 -334h410z" />
    <glyph glyph-name="afii10102" unicode="&#x455;" horiz-adv-x="945" 
d="M857 796l-130 -55q-67 170 -266 170q-91 0 -146 -46.5t-55 -110.5q0 -65 42.5 -95.5t166.5 -58.5l63 -15q106 -24 164 -52.5t98 -91t40 -142.5q0 -135 -106.5 -230t-290.5 -95q-132 0 -247.5 51t-198.5 225l145 49q72 -200 306 -200q112 0 173.5 50t61.5 125
q0 59 -36.5 93.5t-162.5 64.5l-53 13q-117 28 -179.5 57.5t-104.5 89.5t-42 137q0 126 97.5 215.5t266.5 89.5q305 0 394 -238z" />
    <glyph glyph-name="afii10103" unicode="&#x456;" horiz-adv-x="470" 
d="M453 1180h-203l31 185h203zM230 0h-157l170 1014h157z" />
    <glyph glyph-name="afii10104" unicode="&#x457;" horiz-adv-x="469" 
d="M231 0h-156l170 1014h155zM612 1304q0 -43 -31.5 -73t-74.5 -30t-74.5 30t-31.5 72q0 43 31.5 72.5t73.5 29.5q44 0 75.5 -29.5t31.5 -71.5zM290 1303q0 -42 -31.5 -72t-73.5 -30t-72.5 30t-30.5 71q0 43 30.5 72.5t69.5 29.5q48 0 78 -30t30 -71z" />
    <glyph glyph-name="afii10105" unicode="&#x458;" horiz-adv-x="469" 
d="M451 1180h-203l31 185h203zM396 1014l-159 -949q-27 -161 -55 -236t-106 -127.5t-186 -52.5q-56 0 -138 12l20 121q70 -7 107 -7q71 0 111.5 31t53.5 73t38 186l159 949h155z" />
    <glyph glyph-name="afii10106" unicode="&#x459;" horiz-adv-x="1248" 
d="M524 0l-49 819h-30l-393 -819h-146l502 1010h190l29 -388h261q161 0 242 -77.5t81 -211.5q0 -146 -98.5 -239.5t-273.5 -93.5h-315zM634 493l24 -365h166q216 0 216 206q0 159 -182 159h-224z" />
    <glyph glyph-name="afii10107" unicode="&#x45a;" horiz-adv-x="1575" 
d="M754 466h-454l-78 -466h-156l170 1014h155l-70 -420h454l70 420h156l-66 -392h254q171 0 247 -81.5t76 -204.5q0 -151 -100 -243.5t-273 -92.5h-463zM853 128h271q217 0 217 207q0 158 -183 158h-244z" />
    <glyph glyph-name="afii10108" unicode="&#x45b;" horiz-adv-x="1052" 
d="M274 1267l21 126h156l-21 -126h426l-20 -114h-425l-62 -370q148 220 354 220q131 0 204.5 -74t73.5 -193q0 -41 -18 -154l-98 -582h-155l97 582q15 90 15 127q0 85 -50 126.5t-113 41.5q-118 0 -222 -94t-133 -270l-86 -513h-156l193 1153h-195l19 114h195z" />
    <glyph glyph-name="afii10109" unicode="&#x45c;" horiz-adv-x="989" 
d="M229 0h-156l170 1014h155l-85 -510l540 509h183l-389 -361l252 -652h-166l-213 547l-239 -237zM932 1356l-401 -189l-43 81l382 228z" />
    <glyph glyph-name="afii10110" unicode="&#x45e;" horiz-adv-x="832" 
d="M916 1014l-556 -1069q-103 -199 -193 -250t-190 -51q-42 0 -100 7l23 136q51 -10 86 -10q161 0 248 180l35 71l-212 986h160l164 -771l399 771h136zM223 1438h110q5 -143 155 -143q73 0 122 27t88 116h114q-76 -255 -329 -255q-137 0 -198 63.5t-62 191.5z" />
    <glyph glyph-name="afii10193" unicode="&#x45f;" horiz-adv-x="1080" 
d="M72 0l170 1014h155l-148 -886h455l148 886h156l-170 -1014h-303l-60 -233h-115l18 233h-306z" />
    <glyph glyph-name="afii10050" unicode="&#x490;" horiz-adv-x="924" 
d="M1109 1612l-66 -391h-586l-204 -1221h-167l228 1365h598l41 247h156z" />
    <glyph glyph-name="afii10098" unicode="&#x491;" horiz-adv-x="750" 
d="M700 1014l31 188h135l-53 -316h-437l-148 -886h-156l170 1014h458z" />
    <glyph glyph-name="Wgrave" unicode="&#x1e80;" horiz-adv-x="1663" 
d="M1215 0h-169l-131 1089l-438 -1089h-177l-134 1365h167l109 -1128l461 1128h128l140 -1128l456 1128h141zM787 1677l62 120l368 -228l-43 -81z" />
    <glyph glyph-name="wgrave" unicode="&#x1e81;" horiz-adv-x="1380" 
d="M959 0h-116l-127 772l-323 -772h-127l-156 1014h154l113 -762l319 762h129l121 -762l334 762h133zM593 1356l62 120l368 -228l-43 -81z" />
    <glyph glyph-name="Wacute" unicode="&#x1e82;" horiz-adv-x="1663" 
d="M1215 0h-169l-131 1089l-438 -1089h-177l-134 1365h167l109 -1128l461 1128h128l140 -1128l456 1128h141zM1259 1677l-401 -189l-43 81l382 228z" />
    <glyph glyph-name="wacute" unicode="&#x1e83;" horiz-adv-x="1380" 
d="M959 0h-116l-127 772l-323 -772h-127l-156 1014h154l113 -762l319 762h129l121 -762l334 762h133zM1030 1356l-401 -189l-43 81l382 228z" />
    <glyph glyph-name="Wdieresis" unicode="&#x1e84;" horiz-adv-x="1663" 
d="M1215 0h-169l-131 1089l-438 -1089h-177l-134 1365h167l109 -1128l461 1128h128l140 -1128l456 1128h141zM1246 1625q0 -43 -31.5 -73t-74.5 -30t-74.5 30t-31.5 72q0 43 31.5 72.5t73.5 29.5q44 0 75.5 -29.5t31.5 -71.5zM924 1624q0 -42 -31.5 -72t-73.5 -30t-72.5 30
t-30.5 71q0 43 30.5 72.5t69.5 29.5q48 0 78 -30t30 -71z" />
    <glyph glyph-name="wdieresis" unicode="&#x1e85;" horiz-adv-x="1380" 
d="M959 0h-116l-127 772l-323 -772h-127l-156 1014h154l113 -762l319 762h129l121 -762l334 762h133zM1058 1304q0 -43 -31.5 -73t-74.5 -30t-74.5 30t-31.5 72q0 43 31.5 72.5t73.5 29.5q44 0 75.5 -29.5t31.5 -71.5zM736 1303q0 -42 -31.5 -72t-73.5 -30t-72.5 30
t-30.5 71q0 43 30.5 72.5t69.5 29.5q48 0 78 -30t30 -71z" />
    <glyph glyph-name="Ygrave" unicode="&#x1ef2;" horiz-adv-x="1049" 
d="M532 0h-172l95 572l-348 793h183l284 -646l472 646h168l-587 -793zM467 1677l62 120l368 -228l-43 -81z" />
    <glyph glyph-name="ygrave" unicode="&#x1ef3;" horiz-adv-x="870" 
d="M941 1014l-556 -1069q-103 -199 -193 -250t-190 -51q-42 0 -100 7l23 136q51 -10 86 -10q161 0 248 180l35 71l-212 986h160l164 -771l399 771h136zM321 1356l62 120l368 -228l-43 -81z" />
    <glyph glyph-name="afii00208" unicode="&#x2015;" horiz-adv-x="1365" 
d="M1353 452h-1359l19 116h1359z" />
    <glyph glyph-name="underscoredbl" unicode="&#x2017;" horiz-adv-x="1024" 
d="M31 -115h1024v-100h-1024v100zM31 -354h1024v-100h-1024v100z" />
    <glyph glyph-name="quotereversed" unicode="&#x201b;" horiz-adv-x="512" 
d="M496 1365l-32 -192h-100l8 -262h-68l-38 262l32 192h198z" />
    <glyph glyph-name="minute" unicode="&#x2032;" horiz-adv-x="364" 
d="M189 844h-93l249 521h152z" />
    <glyph glyph-name="second" unicode="&#x2033;" horiz-adv-x="633" 
d="M189 844h-93l249 521h152zM485 844h-93l248 521h154z" />
    <glyph glyph-name="exclamdbl" unicode="&#x203c;" horiz-adv-x="1024" 
d="M403 1365v-366l-38 -617h-88l-37 616v367h163zM846 1365v-366l-37 -617h-88l-38 616v367h163zM405 239v-239h-168v239h168zM849 239v-239h-168v239h168z" />
    <glyph glyph-name="uni203E" unicode="&#x203e;" horiz-adv-x="1201" 
d="M-42 1869h1286v-74h-1286v74z" />
    <glyph glyph-name="uni2044" unicode="&#x2044;" horiz-adv-x="218" 
d="M-331 0h-129l1066 1365h128z" />
    <glyph glyph-name="nsuperior" unicode="&#x207f;" horiz-adv-x="737" 
d="M636 546h-114l59 351q9 56 9 83q0 46 -28 77t-80 31q-163 0 -219 -321l-38 -221h-112l102 612h106l-15 -92q84 109 201 109q87 0 142.5 -51.5t55.5 -131.5q0 -34 -10 -94z" />
    <glyph glyph-name="lira" unicode="&#x20a4;" horiz-adv-x="1201" 
d="M163 471l19 115h227q2 46 3 117h-210l19 115h192q4 279 133.5 418t295.5 139q191 0 298 -173l-124 -85q-60 125 -177 125q-85 0 -148 -53t-82 -127t-22 -244h298l-19 -115h-280q-2 -65 -5 -117h265l-19 -115h-260q-40 -216 -218 -326h287q134 0 187.5 10t97.5 42t93 104
l112 -85q-67 -99 -122.5 -140.5t-125.5 -58.5t-241 -17h-696l24 145q133 2 189.5 14t116 58.5t90 107t40.5 146.5h-238z" />
    <glyph glyph-name="peseta" unicode="&#x20a7;" horiz-adv-x="1828" 
d="M215 552l-92 -552h-163l228 1365h248q165 0 258 -29.5t158 -129t65 -218.5q0 -157 -113.5 -296.5t-436.5 -139.5h-152zM238 688h64q174 0 252 18t135.5 94.5t57.5 184.5q0 82 -35 141.5t-90.5 82t-189.5 22.5l-104 -2zM1023 526l-53 -317q-9 -54 -9 -74q0 -59 71 -59
q27 0 96 7l-11 -88q-77 -8 -102 -8q-170 0 -170 136q0 37 15 127l46 276h-96l15 86h97l24 144l118 10l-26 -154h143l-14 -86h-144zM1730 474l-99 -40q-2 3 -7 14q-38 89 -153 89q-46 0 -79 -22t-33 -63q0 -37 25 -52.5t117 -36.5q86 -19 123.5 -35t65 -55.5t27.5 -90.5
q0 -83 -70 -140t-186 -57q-222 0 -290 173l110 35q41 -121 183 -121q134 0 134 95q0 34 -21.5 53t-110.5 39q-152 34 -190 82t-38 97q0 77 63.5 131t171.5 54q197 0 257 -149z" />
    <glyph glyph-name="afii61248" unicode="&#x2105;" horiz-adv-x="1879" 
d="M743 1156l-115 -24q-24 168 -161 168q-107 0 -161 -105.5t-54 -227.5q0 -94 44.5 -142t113.5 -48q125 0 194 162l96 -34q-35 -106 -116.5 -166.5t-184.5 -60.5q-120 0 -196 80.5t-76 221.5q0 173 98 295.5t247 122.5q108 0 184.5 -67t86.5 -175zM486 0h-130l1066 1365
h128zM1424 -29q-136 0 -213 88t-77 225q0 156 102 278t260 122q129 0 208 -84t79 -231q0 -151 -100 -274.5t-259 -123.5zM1429 62q110 0 169.5 103.5t59.5 238.5q0 102 -50 146.5t-119 44.5q-109 0 -169 -103.5t-60 -231.5q0 -198 169 -198z" />
    <glyph glyph-name="afii61289" unicode="&#x2113;" horiz-adv-x="1201" 
d="M613 550q-65 -334 -65 -423q0 -53 37 -53q53 0 103 111q16 37 38 37q27 0 27 -28q0 -53 -64 -137t-145 -84q-70 0 -105 54.5t-35 134.5t23 250q-78 -78 -102 -78q-27 0 -27 32q0 21 42 56q44 38 102 106q73 393 171 627t230 234q63 0 96.5 -47t33.5 -110
q0 -317 -360 -682zM636 683q120 129 188 272.5t68 262.5q0 83 -47 83q-56 0 -100.5 -130.5t-108.5 -487.5z" />
    <glyph glyph-name="afii61352" unicode="&#x2116;" horiz-adv-x="2048" 
d="M1085 0h-133l-535 1167l-196 -1167h-135l228 1365h187l497 -1088l182 1088h134zM1653 362q-124 0 -201 81t-77 219q0 148 95.5 262t246.5 114q127 0 201.5 -83t74.5 -210q0 -158 -97.5 -270.5t-242.5 -112.5zM1660 466q94 0 143.5 91.5t49.5 205.5q0 94 -43.5 133
t-101.5 39q-93 0 -143 -90.5t-50 -200.5q0 -178 145 -178zM1874 0h-605l19 116h605z" />
    <glyph glyph-name="estimated" unicode="&#x212e;" horiz-adv-x="1229" 
d="M321 531v-371q120 -121 298 -121q254 0 395 246l72 -43q-118 -170 -231.5 -223t-235.5 -53q-232 0 -380.5 158.5t-148.5 406.5q0 252 149.5 408.5t379.5 156.5q214 0 366 -142t163 -423h-827zM917 605v297q-124 121 -300 121q-174 0 -296 -121v-297h596z" />
    <glyph glyph-name="oneeighth" unicode="&#x215b;" horiz-adv-x="1802" 
d="M695 546h-565l15 92h220l99 590q-93 -81 -248 -85l16 94q211 26 289 147h82l-125 -746h233zM468 0h-129l1052 1365h130zM1567 437q158 -70 158 -203q0 -105 -89 -177.5t-235 -72.5q-139 0 -230.5 60.5t-91.5 164.5q0 159 207 217q-122 66 -122 181q0 96 79 163t217 67
q119 0 199.5 -55t80.5 -145q0 -135 -173 -200zM1445 480q73 22 128.5 54.5t55.5 89.5q0 58 -49 92t-126 34t-126 -34t-49 -93q0 -90 166 -143zM1408 380q-215 -51 -215 -165q0 -61 53 -101t154 -40q100 0 153.5 41.5t53.5 100.5q0 40 -30.5 77.5t-168.5 86.5z" />
    <glyph glyph-name="threeeighths" unicode="&#x215c;" horiz-adv-x="1802" 
d="M66 738l97 36q67 -155 227 -155q84 0 140 46t56 115q0 55 -35 93t-82 46t-174 8l16 94q51 -1 85 -1q228 0 228 141q0 60 -48.5 98t-116.5 38q-129 0 -194 -131l-90 47q98 172 289 172q123 0 199.5 -65.5t76.5 -156.5q0 -142 -172 -193q60 -20 98 -74.5t38 -118.5
q0 -101 -87 -176t-227 -75q-109 0 -199 55.5t-125 156.5zM469 0h-129l1052 1365h130zM1568 437q158 -70 158 -203q0 -105 -89 -177.5t-235 -72.5q-139 0 -230.5 60.5t-91.5 164.5q0 159 207 217q-122 66 -122 181q0 96 79 163t217 67q114 0 197 -53t83 -147
q0 -135 -173 -200zM1446 480q80 24 132 56.5t52 87.5q0 57 -49 91.5t-126 34.5t-126 -34t-49 -93q0 -90 166 -143zM1409 380q-215 -51 -215 -165q0 -63 54.5 -102t152.5 -39q100 0 153.5 41.5t53.5 99.5q0 40 -30 78t-169 87z" />
    <glyph glyph-name="fiveeighths" unicode="&#x215d;" horiz-adv-x="1802" 
d="M81 725l94 41q77 -142 217 -142q99 0 157 62t58 144q0 78 -53.5 131.5t-134.5 53.5q-111 0 -179 -112l-100 29l100 433h511l-33 -98h-401l-53 -236q70 74 176 74q116 0 199.5 -78t83.5 -193q0 -119 -90 -210.5t-241 -91.5q-223 0 -311 193zM468 0h-129l1051 1365h131z
M1567 437q158 -69 158 -203q0 -105 -89 -177.5t-235 -72.5q-139 0 -230.5 60.5t-91.5 164.5q0 159 206 217q-121 66 -121 181q0 96 79 163t217 67q118 0 199 -54.5t81 -145.5q0 -135 -173 -200zM1445 480q73 22 128.5 54.5t55.5 89.5q0 58 -49 92t-126 34t-126 -34t-49 -93
q0 -90 166 -143zM1408 380q-215 -51 -215 -165q0 -65 56.5 -103t150.5 -38q100 0 153.5 41.5t53.5 100.5q0 40 -30.5 77.5t-168.5 86.5z" />
    <glyph glyph-name="seveneighths" unicode="&#x215e;" horiz-adv-x="1802" 
d="M370 537h-126q34 424 396 727h-470l32 101h591l-12 -74q-243 -224 -322 -401t-89 -353zM400 0h-129l1051 1365h131zM1567 437q158 -70 158 -203q0 -105 -89.5 -177.5t-234.5 -72.5q-140 0 -231 61t-91 164q0 159 206 217q-121 66 -121 181q0 96 79 163t217 67
q112 0 196 -52.5t84 -147.5q0 -135 -173 -200zM1445 480q73 22 128.5 54.5t55.5 89.5q0 58 -49 92t-126 34t-126 -34t-49 -93q0 -90 166 -143zM1408 380q-215 -51 -215 -165q0 -65 56.5 -103t150.5 -38q100 0 153.5 41.5t53.5 100.5q0 40 -30.5 77.5t-168.5 86.5z" />
    <glyph glyph-name="arrowleft" unicode="&#x2190;" horiz-adv-x="2048" 
d="M492 157q-121 135 -209 205.5t-204 131.5v46q116 61 203 130.5t210 205.5h76q-46 -96 -77.5 -147.5t-88.5 -124.5h1566v-175h-1566q55 -69 88 -122.5t78 -149.5h-76z" />
    <glyph glyph-name="arrowup" unicode="&#x2191;" horiz-adv-x="1024" 
d="M153 926q135 122 205.5 209.5t131.5 203.5h45q61 -116 130.5 -202.5t206.5 -210.5v-76q-97 46 -148.5 78t-123.5 88v-1445h-175v1445q-69 -54 -122.5 -87t-149.5 -79v76z" />
    <glyph glyph-name="arrowright" unicode="&#x2192;" horiz-adv-x="2048" 
d="M1555 876q122 -135 209.5 -205t203.5 -132v-45q-116 -61 -202.5 -130.5t-210.5 -206.5h-76q46 97 78 148.5t88 123.5h-1566v175h1566q-54 69 -87 122.5t-79 149.5h76z" />
    <glyph glyph-name="arrowdown" unicode="&#x2193;" horiz-adv-x="1024" 
d="M871 -16q-135 -122 -205.5 -209.5t-131.5 -203.5h-45q-61 116 -131 202.5t-206 210.5v76q97 -46 148.5 -78t123.5 -88v1445h175v-1445q69 54 122.5 87t149.5 79v-76z" />
    <glyph glyph-name="arrowboth" unicode="&#x2194;" horiz-adv-x="2048" 
d="M402 604h1243q-54 68 -87 122t-79 150h76q122 -135 209.5 -205t203.5 -132v-45q-116 -61 -202.5 -130.5t-210.5 -206.5h-76q46 97 77.5 148t88.5 124h-1243q55 -69 88 -122.5t78 -149.5h-76q-121 135 -209 205.5t-204 131.5v46q116 61 203 130.5t210 205.5h76
q-46 -96 -77.5 -147.5t-88.5 -124.5z" />
    <glyph glyph-name="arrowupdn" unicode="&#x2195;" horiz-adv-x="1024" 
d="M600 1139v-1243q68 54 122 87.5t150 79.5v-77q-135 -121 -205.5 -208.5t-131.5 -204.5h-45q-61 116 -131 203t-206 210v77q96 -47 147.5 -78t124.5 -89v1243q-69 -54 -122.5 -87t-149.5 -79v76q135 122 205.5 209.5t131.5 204.5h45q61 -117 130.5 -203.5t206.5 -210.5
v-76q-97 46 -148.5 78t-123.5 88z" />
    <glyph glyph-name="arrowupdnbse" unicode="&#x21a8;" horiz-adv-x="1024" 
d="M599 1139v-1243q68 54 122 87.5t150 79.5v-77q-135 -121 -205.5 -208.5t-131.5 -204.5h-45q-61 116 -131 203t-206 210v77q96 -47 147.5 -78t124.5 -89v1243q-69 -54 -122.5 -87t-149.5 -79v76q135 122 205.5 209.5t131.5 204.5h45q61 -117 130.5 -203.5t206.5 -210.5
v-76q-97 46 -148.5 78t-123.5 88zM152 -502h719v-175h-719v175z" />
    <glyph glyph-name="orthogonal" unicode="&#x221f;" horiz-adv-x="2048" 
d="M123 0v1782h135v-1647h1667v-135h-1802z" />
    <glyph glyph-name="intersection" unicode="&#x2229;" horiz-adv-x="1473" 
d="M316 0h-134v637q0 279 13.5 392.5t81 222.5t200 182.5t283.5 73.5q152 0 284.5 -74.5t198 -178t81 -218t15.5 -400.5v-637h-134v644q0 241 -12 345.5t-60.5 188t-152.5 142t-220 58.5q-117 0 -221 -60t-151 -141t-59.5 -186t-12.5 -347v-644z" />
    <glyph glyph-name="equivalence" unicode="&#x2261;" horiz-adv-x="1201" 
d="M188 1064h887v-138h-887v138zM188 764h887v-139h-887v139zM188 464h887v-139h-887v139z" />
    <glyph glyph-name="house" unicode="&#x2302;" horiz-adv-x="1229" 
d="M153 0v634l461 519l462 -519v-634h-923zM234 81h761v519l-381 427l-380 -427v-519z" />
    <glyph glyph-name="revlogicalnot" unicode="&#x2310;" horiz-adv-x="1201" 
d="M1075 546v-36l-104 -102h-630v-408h-153v546h887z" />
    <glyph glyph-name="integraltp" unicode="&#x2320;" horiz-adv-x="1237" 
d="M691 -515h-145v1811q0 219 89.5 330t202.5 111q67 0 102.5 -32.5t35.5 -76.5q0 -40 -25.5 -66t-62.5 -26q-30 0 -57 15q-18 10 -41.5 46.5t-46.5 36.5q-17 0 -31 -12q-10 -8 -14 -27q-7 -33 -7 -139v-1971z" />
    <glyph glyph-name="integralbt" unicode="&#x2321;" horiz-adv-x="1237" 
d="M546 1737h145v-1811q0 -219 -89.5 -330t-202.5 -111q-67 0 -102.5 32.5t-35.5 76.5q0 40 25.5 66t61.5 26q31 0 59 -16q18 -10 41 -46t46 -36q17 0 31 11q10 8 14 29q7 32 7 138v1971z" />
    <glyph glyph-name="SF100000" unicode="&#x2500;" 
d="M1473 534h-1496v175h1496v-175z" />
    <glyph glyph-name="SF110000" unicode="&#x2502;" 
d="M638 -621v2485h175v-2485h-175z" />
    <glyph glyph-name="SF010000" unicode="&#x250c;" 
d="M1474 709v-175h-661v-1155h-175v1330h836z" />
    <glyph glyph-name="SF030000" unicode="&#x2510;" 
d="M637 534h-660v175h835v-1330h-175v1155z" />
    <glyph glyph-name="SF020000" unicode="&#x2514;" 
d="M638 534v1330h175v-1155h661v-175h-836z" />
    <glyph glyph-name="SF040000" unicode="&#x2518;" 
d="M812 534h-835v175h660v1155h175v-1330z" />
    <glyph glyph-name="SF080000" unicode="&#x251c;" 
d="M638 -621v2485h175v-1155h661v-175h-661v-1155h-175z" />
    <glyph glyph-name="SF090000" unicode="&#x2524;" 
d="M637 -621v1155h-660v175h660v1155h175v-2485h-175z" />
    <glyph glyph-name="SF060000" unicode="&#x252c;" 
d="M637 534h-660v175h1496v-175h-661v-1155h-175v1155z" />
    <glyph glyph-name="SF070000" unicode="&#x2534;" 
d="M1473 534h-1496v175h660v1155h175v-1155h661v-175z" />
    <glyph glyph-name="SF050000" unicode="&#x253c;" 
d="M637 534h-660v175h660v1155h175v-1155h661v-175h-661v-1155h-175v1155z" />
    <glyph glyph-name="SF430000" unicode="&#x2550;" 
d="M1473 724h-1496v175h1496v-175zM1473 344h-1496v175h1496v-175z" />
    <glyph glyph-name="SF240000" unicode="&#x2551;" 
d="M829 -621v2485h175v-2485h-175zM448 -621v2485h175v-2485h-175z" />
    <glyph glyph-name="SF510000" unicode="&#x2552;" 
d="M638 -621v1520h836v-175h-661v-205h661v-175h-661v-965h-175z" />
    <glyph glyph-name="SF520000" unicode="&#x2553;" 
d="M448 -621v1330h1027v-175h-471v-1155h-175v1155h-206v-1155h-175z" />
    <glyph glyph-name="SF390000" unicode="&#x2554;" 
d="M623 -621h-175v1520h1026v-175h-851v-1345zM1004 344v-965h-175v1140h645v-175h-470z" />
    <glyph glyph-name="SF220000" unicode="&#x2555;" 
d="M637 344h-660v175h660v205h-660v175h835v-1520h-175v965z" />
    <glyph glyph-name="SF210000" unicode="&#x2556;" 
d="M448 -621v1155h-471v175h1026v-1330h-175v1155h-206v-1155h-174z" />
    <glyph glyph-name="SF250000" unicode="&#x2557;" 
d="M828 -621v1345h-851v175h1026v-1520h-175zM447 344h-470v175h645v-1140h-175v965z" />
    <glyph glyph-name="SF500000" unicode="&#x2558;" 
d="M638 344v1520h175v-965h661v-175h-661v-205h661v-175h-836z" />
    <glyph glyph-name="SF490000" unicode="&#x2559;" 
d="M1475 534h-1027v1330h175v-1155h206v1155h175v-1155h471v-175z" />
    <glyph glyph-name="SF380000" unicode="&#x255a;" 
d="M623 1864v-1345h850v-175h-1025v1520h175zM1004 899h470v-175h-645v1140h175v-965z" />
    <glyph glyph-name="SF280000" unicode="&#x255b;" 
d="M812 344h-835v175h660v205h-660v175h660v965h175v-1520z" />
    <glyph glyph-name="SF270000" unicode="&#x255c;" 
d="M1003 534h-1026v175h470v1155h175v-1155h206v1155h175v-1330z" />
    <glyph glyph-name="SF260000" unicode="&#x255d;" 
d="M828 1864h175v-1520h-1026v175h851v1345zM447 899v965h175v-1140h-645v175h470z" />
    <glyph glyph-name="SF360000" unicode="&#x255e;" 
d="M638 -621v2485h175v-965h661v-175h-661v-205h661v-175h-661v-965h-175z" />
    <glyph glyph-name="SF370000" unicode="&#x255f;" 
d="M829 -621v2485h175v-1155h470v-175h-470v-1155h-175zM448 -621v2485h175v-2485h-175z" />
    <glyph glyph-name="SF420000" unicode="&#x2560;" 
d="M448 -621v2485h175v-2485h-175zM829 724v1140h175v-965h470v-175h-645zM829 -621v1140h645v-175h-470v-965h-175z" />
    <glyph glyph-name="SF190000" unicode="&#x2561;" 
d="M637 344h-660v175h660v205h-660v175h660v965h175v-2485h-175v965z" />
    <glyph glyph-name="SF200000" unicode="&#x2562;" 
d="M447 -621l1 1155h-471v175h470v1155h175v-2485h-175zM828 -621v2485h175v-2485h-175z" />
    <glyph glyph-name="SF230000" unicode="&#x2563;" 
d="M828 -621v2485h175v-2485h-175zM622 1864v-1140h-645v175h470v965h175zM447 344h-470v175h645v-1140h-175v965z" />
    <glyph glyph-name="SF470000" unicode="&#x2564;" 
d="M1473 724h-1496v175h1496v-175zM637 344h-660v175h1496v-175h-661v-965h-175v965z" />
    <glyph glyph-name="SF480000" unicode="&#x2565;" 
d="M447 -621v1155h-470v175h1496v-175h-470v-1155h-175v1155h-206v-1155h-175z" />
    <glyph glyph-name="SF410000" unicode="&#x2566;" 
d="M1473 724h-1496v175h1496v-175zM447 344h-470v175h645v-1140h-175v965zM828 -621v1140h645v-175h-470v-965h-175z" />
    <glyph glyph-name="SF450000" unicode="&#x2567;" 
d="M1473 724h-1496v175h660v965h175v-965h661v-175zM1473 344h-1496v175h1496v-175z" />
    <glyph glyph-name="SF460000" unicode="&#x2568;" 
d="M1473 534h-1496v175h470v1155h175v-1155h206v1155h175v-1155h470v-175z" />
    <glyph glyph-name="SF400000" unicode="&#x2569;" 
d="M622 724h-645v175h470v965h175v-1140zM1473 724h-645v1140h175v-965h470v-175zM1473 344h-1496v175h1496v-175z" />
    <glyph glyph-name="SF540000" unicode="&#x256a;" 
d="M637 344h-660v175h660v205h-660v175h660v965h175v-965h661v-175h-661v-205h661v-175h-661v-965h-175v965z" />
    <glyph glyph-name="SF530000" unicode="&#x256b;" 
d="M447 -621v1155h-470v175h470v1155h175v-1155h206v1155h175v-1155h470v-175h-470v-1155h-175v1155h-206v-1155h-175z" />
    <glyph glyph-name="SF440000" unicode="&#x256c;" 
d="M1003 899h470v-175h-645v1140h175v-965zM447 899v965h175v-1140h-645v175h470zM447 344h-470v175h645v-1140h-175v965zM1003 344v-965h-175v1140h645v-175h-470z" />
    <glyph glyph-name="upblock" unicode="&#x2580;" 
d="M1473 621h-1496v1243h1496v-1243z" />
    <glyph glyph-name="dnblock" unicode="&#x2584;" 
d="M1473 -621h-1496v1242h1496v-1242z" />
    <glyph glyph-name="block" unicode="&#x2588;" 
d="M-23 -621v2485h1496v-2485h-1496z" />
    <glyph glyph-name="lfblock" unicode="&#x258c;" 
d="M-23 -621v2485h748v-2485h-748z" />
    <glyph glyph-name="rtblock" unicode="&#x2590;" 
d="M726 -621v2485h748v-2485h-748z" />
    <glyph glyph-name="ltshade" unicode="&#x2591;" 
d="M0 1864h121v-125h-121v125zM482 1864h121v-125h-121v125zM965 1864h121v-125h-121v125zM241 1615h121v-125h-121v125zM723 1615h121v-125h-121v125zM1206 1615h121v-125h-121v125zM965 1366h121v-125h-121v125zM482 1366h121v-125h-121v125zM0 1366h121v-125h-121v125z
M1206 1117h121v-125h-121v125zM723 1117h121v-125h-121v125zM241 1117h121v-125h-121v125zM0 867h121v-125h-121v125zM482 867h121v-125h-121v125zM965 867h121v-125h-121v125zM1206 618h121v-125h-121v125zM723 618h121v-125h-121v125zM241 618h121v-125h-121v125zM0 369
h121v-125h-121v125zM482 369h121v-125h-121v125zM965 369h121v-125h-121v125zM241 120h121v-125h-121v125zM723 120h121v-125h-121v125zM1206 120h121v-125h-121v125zM965 -130h121v-125h-121v125zM482 -130h121v-125h-121v125zM0 -130h121v-125h-121v125zM241 -379h121
v-125h-121v125zM723 -379h121v-125h-121v125zM1206 -379h121v-125h-121v125z" />
    <glyph glyph-name="shade" unicode="&#x2592;" 
d="M121 1864h120v-125h-120v125zM362 1864h120v-125h-120v125zM603 1864h121v-125h-121v125zM844 1864h121v-125h-121v125zM1086 1864h120v-125h-120v125zM1327 1864h120v-125h-120v125zM0 1615h121v-125h-121v125zM241 1615h121v-125h-121v125zM482 1615h121v-125h-121v125
zM724 1615h120v-125h-120v125zM965 1615h121v-125h-121v125zM1206 1615h121v-125h-121v125zM121 1366h120v-125h-120v125zM362 1366h120v-125h-120v125zM603 1366h121v-125h-121v125zM844 1366h121v-125h-121v125zM1086 1366h120v-125h-120v125zM1327 1366h120v-125h-120
v125zM241 1116h121v-124h-121v124zM482 1116h121v-124h-121v124zM724 1116h120v-124h-120v124zM965 1116h121v-124h-121v124zM1206 1116h121v-124h-121v124zM0 1116h121v-124h-121v124zM121 867h120v-125h-120v125zM362 867h120v-125h-120v125zM603 867h121v-125h-121v125z
M844 867h121v-125h-121v125zM1086 867h120v-125h-120v125zM1327 867h120v-125h-120v125zM0 618h121v-125h-121v125zM482 618h121v-125h-121v125zM724 618h120v-125h-120v125zM965 618h121v-125h-121v125zM1206 618h121v-125h-121v125zM241 618h121v-125h-121v125zM1327 369
h120v-125h-120v125zM1086 369h120v-125h-120v125zM844 369h121v-125h-121v125zM603 369h121v-125h-121v125zM362 369h120v-125h-120v125zM121 369h120v-125h-120v125zM0 119h121v-124h-121v124zM241 119h121v-124h-121v124zM482 119h121v-124h-121v124zM724 119h120v-124
h-120v124zM965 119h121v-124h-121v124zM1206 119h121v-124h-121v124zM1327 -130h120v-125h-120v125zM1086 -130h120v-125h-120v125zM844 -130h121v-125h-121v125zM603 -130h121v-125h-121v125zM362 -130h120v-125h-120v125zM121 -130h120v-125h-120v125zM0 -379h121v-125
h-121v125zM241 -379h121v-125h-121v125zM482 -379h121v-125h-121v125zM724 -379h120v-125h-120v125zM965 -380l121 1v-125h-121v124zM1206 -379h121v-125h-121v125z" />
    <glyph glyph-name="dkshade" unicode="&#x2593;" 
d="M1447 1490v-374h-120v-124h120v-374h-120v-125h120v-374h-120v-124h120v-374h-120v-125h120v-124h-1447v373h121v125h-121v374h121v125h-121v373h121v125h-121v374h121v125h-121v373h121v125h120v-125h121v125h120v-125h121v125h121v-125h120v125h121v-125h121v125h120
v-125h121v125h120v-249h-120v-125h120zM121 1615v-125h120v125h-120zM362 1615v-125h120v125h-120zM603 1615v-125h121v125h-121zM844 1615v-125h121v125h-121zM1086 1615v-125h120v125h-120zM1327 1366h-121v-125h121v125zM1086 1366h-121v-125h121v125zM844 1366h-120
v-125h120v125zM603 1366h-121v-125h121v125zM362 1366h-121v-125h121v125zM121 1116v-124h120v124h-120zM362 1116v-124h120v124h-120zM603 1116v-124h121v124h-121zM844 1116v-124h121v124h-121zM1086 1116v-124h120v124h-120zM362 867h-121v-125h121v125zM482 867v-125
h121v125h-121zM724 867v-125h120v125h-120zM965 867v-125h121v125h-121zM1206 867v-125h121v125h-121zM121 618v-125h120v125h-120zM603 618v-125h121v125h-121zM482 493v125h-120v-125h120zM844 618v-125h121v125h-121zM1086 618v-125h120v125h-120zM1327 244v125h-121
v-125h121zM1086 244v125h-121v-125h121zM844 244v125h-120v-125h120zM603 244v125h-121v-125h121zM362 244v125h-121v-125h121zM121 119v-124h120v124h-120zM362 119v-124h120v124h-120zM603 119v-124h121v124h-121zM844 119v-124h121v124h-121zM1086 119v-124h120v124h-120
zM1327 -255v125h-121v-125h121zM1086 -255v125h-121v-125h121zM844 -255v125h-120v-125h120zM603 -255v125h-121v-125h121zM362 -255v125h-121v-125h121zM121 -379v-125h120v125h-120zM362 -379v-125h120v125h-120zM603 -379v-125h121v125h-121zM844 -379v-125h121v125h-121
zM1086 -379v-125h120v125h-120z" />
    <glyph glyph-name="filledbox" unicode="&#x25a0;" horiz-adv-x="1237" 
d="M146 944h944v-944h-944v944z" />
    <glyph glyph-name="H22073" unicode="&#x25a1;" horiz-adv-x="1237" 
d="M146 944h944v-944h-944v944zM222 868v-792h792v792h-792z" />
    <glyph glyph-name="H18543" unicode="&#x25aa;" horiz-adv-x="726" 
d="M594 909v-464h-463v463z" />
    <glyph glyph-name="H18551" unicode="&#x25ab;" horiz-adv-x="726" 
d="M594 909v-464h-463v463zM518 833l-311 -1v-311h311v312z" />
    <glyph glyph-name="filledrect" unicode="&#x25ac;" horiz-adv-x="2048" 
d="M340 386h1368v-386h-1368v386z" />
    <glyph glyph-name="triagup" unicode="&#x25b2;" horiz-adv-x="2027" 
d="M304 0l710 1419l710 -1419h-1420z" />
    <glyph glyph-name="triagrt" unicode="&#x25ba;" horiz-adv-x="2027" 
d="M288 1417l1451 -724l-1451 -724v1448z" />
    <glyph glyph-name="triagdn" unicode="&#x25bc;" horiz-adv-x="2027" 
d="M1724 1388l-710 -1419l-710 1419h1420z" />
    <glyph glyph-name="triaglf" unicode="&#x25c4;" horiz-adv-x="2027" 
d="M1739 1417v-1448l-1451 724z" />
    <glyph glyph-name="circle" unicode="&#x25cb;" horiz-adv-x="1237" 
d="M619 1018q110 0 216 -57t165 -163t59 -220q0 -183 -129 -312t-311 -129q-183 0 -312 129t-129 312q0 115 59 220.5t165 162.5t217 57zM619 942q-93 0 -180 -47t-136 -135t-49 -182q0 -151 107 -258t258 -107t257.5 107t106.5 258q0 94 -49 182t-136 135t-179 47z" />
    <glyph glyph-name="H18533" unicode="&#x25cf;" horiz-adv-x="1237" 
d="M619 1018q110 0 216 -57t165 -163t59 -220q0 -183 -129 -312t-311 -129q-183 0 -312 129t-129 312q0 115 59 220.5t165 162.5t217 57z" />
    <glyph glyph-name="invbullet" unicode="&#x25d8;" horiz-adv-x="1237" 
d="M128 0v980h980v-980h-980zM618 692q-84 0 -143 -59t-59 -143q0 -83 59.5 -142.5t142.5 -59.5q84 0 143 59.5t59 142.5q0 84 -59 143t-143 59z" />
    <glyph glyph-name="invcircle" unicode="&#x25d9;" horiz-adv-x="1237" 
d="M42 0v1155h1155v-1155h-1155zM619 1018q-111 0 -216.5 -57t-164.5 -163t-59 -221q0 -182 129 -311t311 -129q183 0 312 129t129 311q0 115 -59 221t-164.5 163t-217.5 57zM620 942q91 0 178.5 -47t136.5 -134.5t49 -183.5q0 -151 -106.5 -257.5t-257.5 -106.5
q-152 0 -258.5 106.5t-106.5 257.5q0 96 49 183.5t136.5 134.5t179.5 47z" />
    <glyph glyph-name="openbullet" unicode="&#x25e6;" horiz-adv-x="726" 
d="M363 928q104 0 177.5 -73.5t73.5 -177.5t-73.5 -177.5t-177.5 -73.5t-177.5 73.5t-73.5 177.5t73 177.5t178 73.5zM363 852q-73 0 -124 -51.5t-51 -123.5q0 -73 51.5 -124t123.5 -51t123.5 51t51.5 124q0 72 -51 123.5t-124 51.5z" />
    <glyph glyph-name="smileface" unicode="&#x263a;" horiz-adv-x="2048" 
d="M1024 1156q160 0 313 -82.5t239 -236t86 -319.5q0 -165 -84.5 -316.5t-236.5 -236t-317 -84.5q-166 0 -317.5 84.5t-236 236t-84.5 316.5q0 166 85.5 319.5t238.5 236t314 82.5zM1024 1063q-137 0 -267.5 -70.5t-204 -201.5t-73.5 -273q0 -141 72 -270.5t202 -201.5
t271 -72t271 72t202 201.5t72 270.5q0 142 -73.5 273t-204 201.5t-267.5 70.5zM779 731q34 0 57.5 -23.5t23.5 -57.5q0 -33 -23.5 -57t-57.5 -24q-33 0 -57 24t-24 57q0 34 24 57.5t57 23.5zM1268 731q34 0 57.5 -23.5t23.5 -57.5q0 -33 -23.5 -57t-57.5 -24q-33 0 -57 24
t-24 57q0 34 23.5 57.5t57.5 23.5zM730 313l62 36q79 -144 232 -144t231 144l63 -36q-50 -95 -123.5 -145t-170.5 -50q-98 0 -171 50t-123 145z" />
    <glyph glyph-name="invsmileface" unicode="&#x263b;" horiz-adv-x="2048" 
d="M1024 1156q160 0 313 -82.5t239 -236t86 -319.5q0 -165 -84.5 -316.5t-236.5 -236t-317 -84.5q-166 0 -317.5 84.5t-236 236t-84.5 316.5q0 166 85.5 319.5t238.5 236t314 82.5zM779 731q-33 0 -57 -23.5t-24 -57.5q0 -33 24 -57t57 -24q34 0 57.5 24t23.5 57
q0 34 -23.5 57.5t-57.5 23.5zM1268 731q-34 0 -57.5 -23.5t-23.5 -57.5q0 -33 24 -57t57 -24q34 0 57.5 24t23.5 57q0 34 -23.5 57.5t-57.5 23.5zM730 313q50 -95 123 -145t171 -50q97 0 170.5 50t123.5 145l-63 36q-78 -144 -231 -144t-232 144z" />
    <glyph glyph-name="sun" unicode="&#x263c;" horiz-adv-x="1877" 
d="M902 1621h76v-337q102 -7 181.5 -38.5t167.5 -102.5l290 284l52 -53l-286 -286q73 -95 103 -169q38 -96 41 -185h335v-69h-335q-19 -193 -143 -351l285 -291l-57 -50l-283 282q-98 -72 -171 -100.5t-180 -40.5v-337h-76v337q-112 15 -188.5 46t-156.5 92l-294 -278
l-51 51l285 286q-66 84 -100 166t-45 188h-336v69h336q9 106 42 185.5t102 163.5l-284 287l48 57l292 -282q101 70 179.5 100.5t170.5 38.5v337zM937 1211q-129 0 -252 -66t-191.5 -189.5t-68.5 -256.5t67.5 -255t189.5 -190t255 -68t255 68t190 190t68 255t-69 256.5
t-192 189.5t-252 66z" />
    <glyph glyph-name="female" unicode="&#x2640;" horiz-adv-x="1536" 
d="M796 461v-402h459v-59h-459v-439h-59v439h-460v59h460v402q-103 0 -225.5 65.5t-195 191t-72.5 265.5q0 136 69.5 261t193.5 194t261 69q136 0 260.5 -69.5t193.5 -194t69 -260.5q0 -209 -143.5 -360.5t-351.5 -161.5zM767 1451q-118 0 -230.5 -60.5t-175.5 -173.5
t-63 -235q0 -195 137.5 -332.5t331.5 -137.5q195 0 332.5 137.5t137.5 332.5q0 122 -63 235t-175.5 173.5t-231.5 60.5z" />
    <glyph glyph-name="male" unicode="&#x2642;" horiz-adv-x="1536" 
d="M1216 1620l36 -16l163 -666l-57 -15l-142 581l-358 -768q148 -75 224 -202t76 -272q0 -136 -69 -260.5t-193.5 -194t-261.5 -69.5q-136 0 -260.5 69.5t-193.5 194t-69 260.5q0 217 153.5 370t372.5 153q78 0 166 -27l360 771l-537 -265l-24 53zM634 731
q-118 0 -230.5 -60.5t-175.5 -173.5t-63 -235q0 -195 137.5 -332.5t331.5 -137.5q195 0 332.5 137.5t137.5 332.5q0 122 -63 235t-175.5 173.5t-231.5 60.5z" />
    <glyph glyph-name="spade" unicode="&#x2660;" horiz-adv-x="1344" 
d="M673 1231q26 -108 80 -193t192.5 -210.5t175.5 -193t37 -136.5q0 -95 -64 -159t-154 -64q-82 0 -154 57q-54 42 -101 133q1 -147 38.5 -233.5t119.5 -136t219 -58.5l7 -37h-792l7 37q184 0 285.5 107.5t97.5 320.5q-45 -95 -111.5 -142.5t-149.5 -47.5q-90 0 -155 65
t-65 154q0 74 32 133q45 83 146.5 166t149.5 137q74 83 107.5 148t51.5 153z" />
    <glyph glyph-name="club" unicode="&#x2663;" horiz-adv-x="1344" 
d="M1098 0h-848l8 34q165 35 219 69q81 51 132.5 151t51.5 210q0 16 -1 47q-61 -124 -148.5 -181t-178.5 -57q-116 0 -197 81t-81 199q0 116 74 195.5t165 81.5q63 -2 166 -53q-42 69 -54.5 105t-12.5 77q0 115 79 193.5t198 78.5q117 0 197.5 -78.5t80.5 -189.5
q0 -88 -69 -186q84 40 101 45q27 8 61 8q100 0 173.5 -78.5t73.5 -194.5q0 -120 -80.5 -201.5t-196.5 -82.5q-77 4 -134.5 33t-107.5 80q-35 37 -87 125q4 -159 48.5 -251.5t136.5 -153.5q62 -41 223 -72z" />
    <glyph glyph-name="heart" unicode="&#x2665;" horiz-adv-x="1344" 
d="M674 -24q-31 118 -88.5 221.5t-222.5 321.5q-121 160 -149 203q-46 70 -66.5 128.5t-20.5 118.5q0 111 74 186t180 76q113 -1 194 -79q61 -58 99 -173q32 112 92 171q83 81 191 81q109 0 184.5 -74t75.5 -176q0 -91 -43.5 -188t-170.5 -257q-164 -207 -239 -340
q-59 -105 -90 -220z" />
    <glyph glyph-name="diamond" unicode="&#x2666;" horiz-adv-x="1344" 
d="M671 1234q88 -154 218 -327q150 -200 242 -303q-74 -78 -242 -302q-136 -182 -218 -326q-27 52 -74 121q-81 120 -201 279q-26 35 -183 228q101 115 260 328q118 158 198 302z" />
    <glyph glyph-name="musicalnote" unicode="&#x266a;" horiz-adv-x="1024" 
d="M486 1363h38q172 0 227 -14q79 -20 139 -77q45 -42 71 -118.5t26 -178.5v-103h-99v43q0 68 -28.5 115.5t-84.5 72.5q-73 32 -162 32h-28v-835q0 -121 -32 -188.5t-110 -108t-170 -40.5q-109 0 -172.5 61.5t-63.5 161.5q0 105 76 176.5t199 71.5q78 0 174 -46v975z" />
    <glyph glyph-name="musicalnotedbl" unicode="&#x266b;" horiz-adv-x="1536" 
d="M534 1271l796 248v-1108q0 -124 -31.5 -187t-107 -104t-170.5 -41q-109 0 -174 62.5t-65 161.5q0 100 77 172.5t199 72.5q40 0 70.5 -7t99.5 -36v724l-595 -185v-836q0 -121 -32 -188.5t-110 -107.5t-170 -40q-109 0 -172.5 61.5t-63.5 160.5q0 105 76 176.5t199 71.5
q78 0 174 -46v975z" />
    <glyph glyph-name="uniF001" unicode="&#xf001;" horiz-adv-x="994" 
d="M262 0h-158l149 892h-190l21 122h189q46 221 129.5 303.5t243.5 82.5q58 0 105 -9l-31 -121q-36 4 -65 4q-81 0 -137 -42.5t-86 -217.5h246l-21 -122h-246zM978 1185h-204l30 180h204zM752 0h-157l170 1014h157z" />
    <glyph glyph-name="uniF002" unicode="&#xf002;" horiz-adv-x="994" 
d="M262 0h-158l149 892h-190l21 122h189q45 222 132 303.5t256 81.5q47 0 90 -8l-31 -123q-33 6 -68 6q-93 0 -142 -47t-78 -213h246l-21 -122h-246zM752 0h-157l229 1365h157z" />
    <glyph glyph-name="uniF003" unicode="&#xf003;" horiz-adv-x="792" 
d="M620 546h-113l32 195h-405l15 90l479 558h133l-93 -555h140l-16 -93h-139zM555 834l71 425l-365 -425h294z" />
    <glyph glyph-name="uniF004" unicode="&#xf004;" horiz-adv-x="1024" 
d="M621 1365h159l-207 -355h-64z" />
    <glyph glyph-name="uniF005" unicode="&#xf005;" horiz-adv-x="1024" 
d="M376 -140h159l-207 -355h-64z" />
    <glyph glyph-name="currency" unicode="&#xa4;" horiz-adv-x="1365" 
d="M143 256l196 195q-104 140 -104 289q0 147 101 290l-197 197l92 92l197 -197q149 104 298 104q142 0 288 -102l196 194l91 -91l-194 -195q102 -151 102 -291q0 -143 -102 -288l198 -197l-91 -92l-197 197q-141 -103 -295 -103q-137 0 -292 101l-196 -195zM1068 741
q0 143 -101.5 245t-244.5 102t-244 -102.5t-101 -243.5q0 -144 101.5 -245.5t243.5 -101.5t244 101.5t102 244.5z" />
    </font>
</defs>
</svg>
